<?xml version="1.0" encoding="UTF-8"?>
<svg xmlns="http://www.w3.org/2000/svg" xmlns:xlink="http://www.w3.org/1999/xlink" version="1.2" >
<font id="Entypo">
<font-face  font-family="Entypo" units-per-em="1000" ascent="750" descent="-250" font-style="normal" font-weight="400" font-stretch="normal" cap-height="0" x-height="0" underline-position="-100" underline-thickness="0" />
<missing-glyph  horiz-adv-x="500" d="" />
<glyph glyph-name="paus" unicode="&#x2016;" horiz-adv-x="365" d="M225 393 Q225 425 270 425 Q315 425 315 393 L315 108 Q315 75 270 75 Q225 75 225 108 L225 393 Z M50 393 Q50 425 95 425 Q140 425 140 393 L140 108 Q140 75 95 75 Q50 75 50 108 L50 393 Z " />
<glyph glyph-name="info" unicode="&#x2139;" horiz-adv-x="330" d="M226 500 Q250 500 263 486.5 Q276 473 276 452 Q276 427 256.5 408 Q237 389 209 389 Q185 389 172 402 Q159 415 160 438 Q160 461 177.5 480.5 Q195 500 226 500 Z M123 0 Q73 0 96 89 L126 216 Q133 244 126 244 Q120 244 99 235 Q78 226 63 216 L50 238 Q95 277 144.5 301 Q194 325 220 325 Q259 325 238 244 L203 111 Q195 79 206 79 Q228 79 265 109 L280 89 Q238 46 192.5 23 Q147 0 123 0 Z " />
<glyph glyph-name="left-thin" unicode="&#x2190;" horiz-adv-x="590" d="M170 125 L50 250 L170 375 L170 295 L540 295 L540 206 L170 206 L170 125 Z " />
<glyph glyph-name="up-thin" unicode="&#x2191;" horiz-adv-x="350" d="M300 376 L219 376 L219 5 L131 5 L131 376 L50 376 L175 495 L300 376 Z " />
<glyph glyph-name="right-thin" unicode="&#x2192;" horiz-adv-x="590" d="M421 125 L421 206 L50 206 L50 295 L421 295 L421 375 L540 250 L421 125 Z " />
<glyph glyph-name="down-thin" unicode="&#x2193;" horiz-adv-x="350" d="M300 125 L175 5 L50 125 L131 125 L131 495 L219 495 L219 125 L300 125 Z " />
<glyph glyph-name="level-up" unicode="&#x21b0;" horiz-adv-x="525" d="M150 250 L150 205 L50 285 L150 370 L150 320 L425 320 Q445 320 460 305.5 Q475 291 475 270 L475 130 L405 130 L405 250 L150 250 Z " />
<glyph glyph-name="level-down" unicode="&#x21b3;" horiz-adv-x="472" d="M100 175 Q79 175 64.5 190 Q50 205 50 225 L50 400 L120 400 L120 245 L302 245 L302 320 L422 210 L302 100 L302 175 L100 175 Z " />
<glyph glyph-name="switch" unicode="&#x21c6;" horiz-adv-x="600" d="M400 371 L400 301 L150 301 L150 256 L50 336 L150 421 L150 371 L400 371 Z M550 161 L450 81 L450 126 L200 126 L200 196 L450 196 L450 246 L550 161 Z " />
<glyph glyph-name="infinity" unicode="&#x221e;" horiz-adv-x="600" d="M448 360 Q490 360 520 333.5 Q550 307 550 250 Q550 194 520 167 Q490 140 448 140 Q409 140 369.5 160 Q330 180 300 213 Q271 180 231.5 160 Q192 140 153 140 Q110 140 80 167 Q50 194 50 250 Q50 307 80 333.5 Q110 360 153 360 Q192 360 231.5 340.5 Q271 321 300 288 Q329 321 369 340.5 Q409 360 448 360 Z M153 184 Q183 184 216.5 202.5 Q250 221 273 250 Q250 279 217 297.5 Q184 316 153 316 Q96 316 96 250 Q96 184 153 184 Z M448 184 Q505 184 505 250 Q505 316 448 316 Q417 316 383.5 297.5 Q350 279 328 250 Q350 221 383.5 202.5 Q417 184 448 184 Z " />
<glyph glyph-name="circled-plus" unicode="&#x2295;" horiz-adv-x="520" d="M111.5 398.5 Q173 460 260 460 Q347 460 408.5 398.5 Q470 337 470 250 Q470 163 408.5 101.5 Q347 40 260 40 Q173 40 111.5 101.5 Q50 163 50 250 Q50 337 111.5 398.5 Z M286 225 L386 225 L386 276 L286 276 L286 377 L235 377 L235 276 L134 276 L134 225 L235 225 L235 124 L286 124 L286 225 Z " />
<glyph glyph-name="circled-minus" unicode="&#x2296;" horiz-adv-x="520" d="M111.5 398.5 Q173 460 260 460 Q347 460 408.5 398.5 Q470 337 470 250 Q470 163 408.5 101.5 Q347 40 260 40 Q173 40 111.5 101.5 Q50 163 50 250 Q50 337 111.5 398.5 Z M386 276 L134 276 L134 225 L386 225 L386 276 Z " />
<glyph glyph-name="squared-plus" unicode="&#x229e;" horiz-adv-x="500" d="M400 450 Q421 450 435.5 435.5 Q450 421 450 400 L450 100 Q450 80 435.5 65 Q421 50 400 50 L100 50 Q80 50 65 65 Q50 80 50 100 L50 400 Q50 421 65 435.5 Q80 450 100 450 L400 450 Z M375 225 L375 275 L275 275 L275 375 L225 375 L225 275 L125 275 L125 225 L225 225 L225 125 L275 125 L275 225 L375 225 Z " />
<glyph glyph-name="squared-minus" unicode="&#x229f;" horiz-adv-x="500" d="M400 450 Q421 450 435.5 435.5 Q450 421 450 400 L450 100 Q450 80 435.5 65 Q421 50 400 50 L100 50 Q80 50 65 65 Q50 80 50 100 L50 400 Q50 421 65 435.5 Q80 450 100 450 L400 450 Z M375 225 L375 275 L125 275 L125 225 L375 225 Z " />
<glyph glyph-name="home" unicode="&#x2302;" horiz-adv-x="551" d="M494 243 Q502 235 499.5 229.5 Q497 224 486 224 L444 224 L444 69 Q444 62 443.5 58.5 Q443 55 439.5 52 Q436 49 428 49 L326 49 L326 204 L224 204 L224 49 L127 49 Q113 49 109.5 54 Q106 59 106 69 L106 224 L64 224 Q53 224 50.5 229.5 Q48 235 56 243 L256 444 Q264 452 275 452 Q286 452 294 444 L494 243 Z " />
<glyph glyph-name="keyboard" unicode="&#x2328;" horiz-adv-x="600" d="M515 400 Q529 400 539.5 389.5 Q550 379 550 365 L550 135 Q550 120 539.5 110 Q529 100 515 100 L85 100 Q71 100 60.5 110 Q50 120 50 135 L50 365 Q50 379 60.5 389.5 Q71 400 85 400 L515 400 Z M325 350 L325 300 L375 300 L375 350 L325 350 Z M400 275 L350 275 L350 225 L400 225 L400 275 Z M250 350 L250 300 L300 300 L300 350 L250 350 Z M325 275 L275 275 L275 225 L325 225 L325 275 Z M175 350 L175 300 L225 300 L225 350 L175 350 Z M250 275 L200 275 L200 225 L250 225 L250 275 Z M100 350 L100 300 L150 300 L150 350 L100 350 Z M175 275 L125 275 L125 225 L175 225 L175 275 Z M150 150 L150 200 L100 200 L100 150 L150 150 Z M425 150 L425 200 L175 200 L175 150 L425 150 Z M500 150 L500 200 L450 200 L450 150 L500 150 Z M425 225 L475 225 L475 275 L425 275 L425 225 Z M500 300 L500 350 L400 350 L400 300 L500 300 Z " />
<glyph glyph-name="erase" unicode="&#x232b;" horiz-adv-x="600" d="M500 425 Q521 425 535.5 410.5 Q550 396 550 375 L550 125 Q550 105 535.5 90 Q521 75 500 75 L261 75 Q242 75 226 89 L56 237 Q42 250 56 264 L226 412 Q241 425 261 425 L500 425 Z M430 150 L466 187 L402 250 L466 314 L430 350 L366 287 L302 350 L266 314 L330 250 L266 187 L302 150 L366 214 L430 150 Z " />
<glyph glyph-name="ff" unicode="&#x23e9;" horiz-adv-x="540" d="M483 262 Q490 257 490 250 Q490 243 483 239 L297 115 Q286 108 278.5 112 Q271 116 271 130 L271 371 Q271 385 278.5 389 Q286 393 297 386 L483 262 Z M256 262 Q263 257 263 250 Q263 243 256 239 L76 115 Q66 108 58 112 Q50 116 50 130 L50 371 Q50 385 58 389 Q66 393 76 386 L256 262 Z " />
<glyph glyph-name="fb" unicode="&#x23ea;" horiz-adv-x="540" d="M50 250 Q50 257 57 262 L244 386 Q254 393 262 389 Q270 385 270 371 L270 130 Q270 116 262 112 Q254 108 244 115 L57 239 Q50 243 50 250 Z M277 250 Q277 257 284 262 L464 386 Q474 393 482 389 Q490 385 490 371 L490 130 Q490 116 482 112 Q474 108 464 115 L284 239 Q277 243 277 250 Z " />
<glyph glyph-name="to-end" unicode="&#x23ed;" horiz-adv-x="400" d="M256 262 Q263 257 263 250 Q263 244 256 239 L75 125 Q64 118 57 122.5 Q50 127 50 140 L50 361 Q50 374 57 378.5 Q64 383 75 376 L256 262 Z M313 396 Q350 396 350 367 L350 134 Q350 105 313 105 Q275 105 275 134 L275 367 Q275 396 313 396 Z " />
<glyph glyph-name="to-start" unicode="&#x23ee;" horiz-adv-x="400" d="M137 250 Q137 257 144 262 L326 376 Q336 383 343 378.5 Q350 374 350 361 L350 140 Q350 127 343 122.5 Q336 118 326 125 L144 239 Q137 244 137 250 Z M50 367 Q50 396 88 396 Q125 396 125 367 L125 134 Q125 105 88 105 Q50 105 50 134 L50 367 Z " />
<glyph glyph-name="hourglass" unicode="&#x23f3;" horiz-adv-x="380" d="M330 386 Q330 364 306 338 Q282 312 257.5 288.5 Q233 265 233 250 Q233 235 257.5 212 Q282 189 306 163.5 Q330 138 330 115 L330 56 Q330 39 287 19.5 Q244 0 190 0 Q136 0 93 19.5 Q50 39 50 56 L50 115 Q50 138 74 163.5 Q98 189 122.5 212 Q147 235 147 250 Q147 265 122.5 288.5 Q98 312 74 338 Q50 364 50 386 L50 445 Q50 461 93.5 480.5 Q137 500 190 500 Q243 500 286.5 480.5 Q330 461 330 445 L330 386 Z M89 442 Q89 442 80 435 Q78 431 82 428 Q128 402 190 402 Q256 402 300 427 Q307 432 292 442 Q244 469 191 469 Q131 469 89 442 Z M203 250 Q203 259 205 266.5 Q207 274 214 283 Q221 292 224 295.5 Q227 299 239.5 311 Q252 323 254 325 Q300 371 300 386 L301 411 Q251 384 190 384 Q129 384 79 411 L81 386 Q81 370 126 325 Q129 322 137 314.5 Q145 307 148.5 303.5 Q152 300 158 294 Q164 288 166.5 283.5 Q169 279 172 273.5 Q175 268 176.5 262 Q178 256 178 250 Q178 245 177.5 240.5 Q177 236 174.5 231.5 Q172 227 170.5 223.5 Q169 220 165 215 Q161 210 159 207.5 Q157 205 151.5 199.5 Q146 194 143.5 192 Q141 190 134.5 184 Q128 178 126 176 Q81 131 81 115 L81 82 Q85 84 114 93.5 Q143 103 160 115 Q177 127 177 144 Q177 159 190 159 Q203 159 203 144 Q203 127 219.5 115 Q236 103 266.5 93.5 Q297 84 300 82 L300 115 Q300 130 254 176 Q252 178 243.5 186 Q235 194 232.5 196.5 Q230 199 223.5 206 Q217 213 214.5 217 Q212 221 208.5 227 Q205 233 204 238.5 Q203 244 203 250 Z " />
<glyph glyph-name="dot" unicode="&#x23f4;" horiz-adv-x="210" d="M66 289 Q82 305 105 305 Q128 305 144 289 Q160 273 160 250 Q160 228 144 211.5 Q128 195 105 195 Q82 195 66 211.5 Q50 228 50 250 Q50 273 66 289 Z " />
<glyph glyph-name="two-dots" unicode="&#x23f5;" horiz-adv-x="385" d="M66 289 Q82 305 105 305 Q128 305 144 289 Q160 273 160 250 Q160 228 144 211.5 Q128 195 105 195 Q82 195 66 211 Q50 227 50 250 Q50 273 66 289 Z M241 289 Q257 305 280 305 Q303 305 319 289 Q335 273 335 250 Q335 228 318.5 211.5 Q302 195 280 195 Q257 195 241 211 Q225 227 225 250 Q225 273 241 289 Z " />
<glyph glyph-name="three-dots" unicode="&#x23f6;" horiz-adv-x="560" d="M66 289 Q82 305 105 305 Q128 305 144 289 Q160 273 160 250 Q160 228 144 211.5 Q128 195 105 195 Q82 195 66 211.5 Q50 228 50 250 Q50 273 66 289 Z M241 289 Q257 305 280 305 Q303 305 319 289 Q335 273 335 250 Q335 228 318.5 211.5 Q302 195 280 195 Q258 195 241.5 211.5 Q225 228 225 250 Q225 273 241 289 Z M416 289 Q432 305 455 305 Q478 305 494 289 Q510 273 510 250 Q510 228 494 211.5 Q478 195 455 195 Q432 195 416 211.5 Q400 228 400 250 Q400 273 416 289 Z " />
<glyph glyph-name="volume" unicode="&#x23f7;" horiz-adv-x="548" d="M498 165 Q498 148 486 136.5 Q474 125 458 125 L68 125 Q57 125 52.5 127.5 Q48 130 51 135 Q54 140 63 145 L464 371 Q478 380 488 374.5 Q498 369 498 352 L498 165 Z " />
<glyph glyph-name="stop" unicode="&#x25a0;" horiz-adv-x="400" d="M313 400 Q350 400 350 368 L350 133 Q350 100 313 100 L88 100 Q50 100 50 133 L50 368 Q50 386 59 393 Q68 400 88 400 L313 400 Z " />
<glyph glyph-name="triangle-up" unicode="&#x25b4;" horiz-adv-x="330" d="M50 150 L165 350 L280 150 L50 150 Z " />
<glyph glyph-name="play" unicode="&#x25b6;" horiz-adv-x="350" d="M293 263 Q300 258 300 250 Q300 243 293 238 L79 105 Q67 97 58.5 102 Q50 107 50 122 L50 379 Q50 394 58.5 399 Q67 404 79 396 L293 263 Z " />
<glyph glyph-name="triangle-right" unicode="&#x25b8;" horiz-adv-x="300" d="M50 365 L250 250 L50 135 L50 365 Z " />
<glyph glyph-name="triangle-down" unicode="&#x25be;" horiz-adv-x="330" d="M280 350 L165 150 L50 350 L280 350 Z " />
<glyph glyph-name="triangle-left" unicode="&#x25c2;" horiz-adv-x="300" d="M250 365 L250 135 L50 250 L250 365 Z " />
<glyph glyph-name="record" unicode="&#x25cf;" horiz-adv-x="450" d="M101 374 Q152 425 225 425 Q298 425 349 374 Q400 323 400 250 Q400 178 349 126.5 Q298 75 225 75 Q152 75 101 126.5 Q50 178 50 250 Q50 323 101 374 Z " />
<glyph glyph-name="adjust" unicode="&#x25d1;" horiz-adv-x="600" d="M525 270 Q535 270 542.5 264 Q550 258 550 250 Q550 230 525 230 L501 230 Q476 230 476 250 Q476 258 483.5 264 Q491 270 501 270 L525 270 Z M203 347 Q243 387 300 387 Q357 387 397.5 347 Q438 307 438 250 Q438 192 397.5 152 Q357 112 300 112 Q243 112 203 152 Q163 192 163 250 Q163 307 203 347 Z M303 150 L303 350 Q260 350 230 320.5 Q200 291 200 250 Q200 208 230 179 Q260 150 303 150 Z M125 250 Q125 230 100 230 L75 230 Q50 230 50 250 Q50 258 57.5 264 Q65 270 75 270 L100 270 Q110 270 117.5 264 Q125 258 125 250 Z M314 432.5 Q308 425 300 425 Q292 425 286 432.5 Q280 440 280 450 L280 475 Q280 485 286 492.5 Q292 500 300 500 Q308 500 314 492.5 Q320 485 320 475 L320 450 Q320 440 314 432.5 Z M286 67.5 Q292 75 300 75 Q308 75 314 67.5 Q320 60 320 50 L320 25 Q320 15 314 7.5 Q308 0 300 0 Q292 0 286 7.5 Q280 15 280 25 L280 50 Q280 60 286 67.5 Z M484 405 L467 388 Q450 371 435 384 Q421 398 439 416 Q441 419 456 434 Q474 451 488 437 Q502 423 484 405 Z M134 111 Q141 119 150.5 120 Q160 121 165 115 Q171 109 170 99.5 Q169 90 162 83 L144 65 Q137 58 127.5 57 Q118 56 113 62 Q98 76 116 94 Q119 96 134 111 Z M144 434 L162 416 Q180 398 165 384 Q160 379 150.5 380 Q141 381 134 388 Q119 403 116 405 Q109 412 108 421.5 Q107 431 113 437 Q118 443 127.5 442 Q137 441 144 434 Z M439 83 Q421 101 435 115 Q449 129 467 111 L484 94 Q502 76 488 62 Q474 48 456 65 Q441 80 439 83 Z " />
<glyph glyph-name="pie-chart" unicode="&#x25f4;" horiz-adv-x="520" d="M234 460 L234 276 L50 276 Q59 349 110.5 400.5 Q162 452 234 460 Z M287 460 Q365 450 417.5 390.5 Q470 331 470 251 Q470 164 408.5 102 Q347 40 259 40 Q179 40 120 92.5 Q61 145 50 224 L262 224 Q272 224 279.5 231 Q287 238 287 249 L287 460 Z " />
<glyph glyph-name="cloud" unicode="&#x2601;" horiz-adv-x="600" d="M430 322 Q480 322 515 288 Q550 254 550 205 Q550 156 515 122 Q480 88 430 88 L141 88 Q104 88 77 114 Q50 140 50 176 Q50 213 76.5 239 Q103 265 141 265 Q142 265 146 264.5 Q150 264 151 264 Q150 270 150 283 Q150 337 189 375 Q228 413 283 413 Q328 413 363 387 Q398 361 410 320 Q424 322 430 322 Z " />
<glyph glyph-name="star" unicode="&#x2605;" horiz-adv-x="540" d="M270 470 L330 302 L490 302 L359 204 L406 30 L270 134 L134 30 L181 204 L50 302 L210 302 L270 470 Z " />
<glyph glyph-name="star-empty" unicode="&#x2606;" horiz-adv-x="540" d="M490 302 L359 204 L406 30 L270 134 L134 30 L181 204 L50 302 L210 302 L270 470 L330 302 L490 302 Z M270 183 L345 121 L314 210 L386 267 L298 265 L270 366 L243 265 L155 267 L226 210 L195 121 L270 183 Z " />
<glyph glyph-name="cup" unicode="&#x2615;" horiz-adv-x="442" d="M221 455 Q297 455 345.5 434.5 Q394 414 391 391 L355 94 Q354 87 338 76 Q322 65 289.5 55 Q257 45 221 45 Q185 45 153 55 Q121 65 104.5 76 Q88 87 87 94 L51 391 Q49 405 69 419.5 Q89 434 129.5 444.5 Q170 455 221 455 Z M152.5 354.5 Q185 347 221 347 Q257 347 289.5 354.5 Q322 362 338.5 371 Q355 380 355 386 Q355 392 338.5 400.5 Q322 409 289.5 416.5 Q257 424 221 424 Q185 424 152.5 416.5 Q120 409 103.5 400.5 Q87 392 87 386 Q87 380 103.5 371 Q120 362 152.5 354.5 Z " />
<glyph glyph-name="list" unicode="&#x2630;" horiz-adv-x="450" d="M375 275 Q386 275 393 267.5 Q400 260 400 250 Q400 240 392.5 232.5 Q385 225 375 225 L75 225 Q65 225 57.5 232.5 Q50 240 50 250 Q50 260 57 267.5 Q64 275 75 275 L375 275 Z M75 325 Q65 325 57.5 332.5 Q50 340 50 350 Q50 360 57 367.5 Q64 375 75 375 L375 375 Q386 375 393 367.5 Q400 360 400 350 Q400 340 392.5 332.5 Q385 325 375 325 L75 325 Z M375 175 Q386 175 393 167.5 Q400 160 400 150 Q400 140 392.5 132.5 Q385 125 375 125 L75 125 Q65 125 57.5 132.5 Q50 140 50 150 Q50 160 57 167.5 Q64 175 75 175 L375 175 Z " />
<glyph glyph-name="moon" unicode="&#x263d;" horiz-adv-x="511" d="M185.5 131.5 Q259 141 312 194 Q365 247 374.5 320 Q384 393 348 455 Q374 442 396 419 Q460 355 460 264.5 Q460 174 396 110 Q332 46 241 46 Q150 46 86 110 Q66 130 50 157 Q112 122 185.5 131.5 Z " />
<glyph glyph-name="heart-empty" unicode="&#x2661;" horiz-adv-x="532" d="M446 396 Q481 364 481 318 Q481 272 446 240 L266 75 L86 240 Q51 272 51 318 Q51 364 86 396 Q118 425 162 425 Q206 425 237 396 L266 370 L294 396 Q326 425 370 425 Q414 425 446 396 Z M419 266 Q440 286 440 318 Q440 351 421 368 Q402 387 370 387 Q344 387 318 363 L266 317 L213 363 Q189 387 162 387 Q130 387 110 368 Q91 350 91 318 Q91 285 113 266 L266 123 L419 266 Z " />
<glyph glyph-name="heart" unicode="&#x2665;" horiz-adv-x="532" d="M446 397 Q481 365 481 319 Q481 273 446 240 L266 75 L86 240 Q51 273 51 319 Q51 365 86 397 Q117 426 161.5 426 Q206 426 238 397 L266 371 L295 397 Q326 426 370 426 Q414 426 446 397 Z " />
<glyph glyph-name="note" unicode="&#x266a;" horiz-adv-x="391" d="M241 485 Q241 464 264 436.5 Q287 409 309 386.5 Q331 364 339.5 327 Q348 290 320 250 Q310 233 307 242 Q306 245 307 250 Q312 259 310 278 Q308 297 303.5 317 Q299 337 282 353.5 Q265 370 241 374 L241 106 Q242 82 222.5 58.5 Q203 35 170 23 Q133 9 98.5 19 Q64 29 54 57 Q44 85 64 114.5 Q84 144 122 157 Q165 172 201 159 L201 485 L241 485 Z " />
<glyph glyph-name="beamed-notes" unicode="&#x266b;" horiz-adv-x="471" d="M153 432 L420 490 L420 138 Q421 117 405 97.5 Q389 78 362 68 Q330 56 307 64 Q284 72 276 96 Q267 120 279.5 144.5 Q292 169 322 181 Q348 191 375 186 L375 374 L198 333 L198 88 Q198 67 182 47.5 Q166 28 139 18 Q107 7 84.5 14.5 Q62 22 54 46 Q45 70 57 94.5 Q69 119 99 131 Q126 141 153 136 L153 432 Z " />
<glyph glyph-name="layout" unicode="&#x268f;" horiz-adv-x="400" d="M135 400 Q175 400 175 360 L175 315 Q175 275 135 275 L90 275 Q50 275 50 315 L50 360 Q50 400 90 400 L135 400 Z M310 400 Q350 400 350 360 L350 315 Q350 275 310 275 L265 275 Q225 275 225 315 L225 360 Q225 400 265 400 L310 400 Z M135 225 Q175 225 175 185 L175 140 Q175 100 135 100 L90 100 Q50 100 50 140 L50 185 Q50 225 90 225 L135 225 Z M310 225 Q350 225 350 185 L350 140 Q350 100 310 100 L265 100 Q225 100 225 140 L225 185 Q225 225 265 225 L310 225 Z " />
<glyph glyph-name="flag" unicode="&#x2691;" horiz-adv-x="551" d="M487 383 Q494 386 498 382.5 Q502 379 498 373 Q450 304 416 266.5 Q382 229 361 221.5 Q340 214 324.5 220.5 Q309 227 294.5 239 Q280 251 263 259 Q246 267 216.5 257 Q187 247 147 214 L192 38 L142 38 L50 398 L96 415 Q141 448 172 458 Q203 468 221 459.5 Q239 451 253 434 Q267 417 284 398.5 Q301 380 323.5 367.5 Q346 355 388 357.5 Q430 360 487 383 Z " />
<glyph glyph-name="tools" unicode="&#x2692;" horiz-adv-x="599" d="M127 328 Q123 324 121.5 317 Q120 310 120 304.5 Q120 299 119 299 Q118 298 110.5 291.5 Q103 285 101 283 Q93 276 87 285 L52 323 Q47 329 53 335 Q54 336 62 342 Q70 348 72 350 Q75 353 85.5 353 Q96 353 104 360 Q111 367 113 379 Q115 391 118 394 Q119 394 122.5 397.5 Q126 401 135.5 408.5 Q145 416 156 424 Q223 469 249 472 Q310 472 323 471 Q329 471 319 467 Q259 441 243 429 Q203 401 225 372 Q242 349 244 348 Q248 344 243 341 Q242 340 224 323.5 Q206 307 205 306 Q198 302 196 304 Q175 328 160.5 334 Q146 340 127 328 Z M270 315 L475 77 Q484 66 474 58 L450 37 Q439 30 431 39 L224 275 Q220 279 224 285 L260 316 Q266 320 270 315 Z M547 416 Q555 364 539 333 Q514 289 462 302 Q434 308 412 286 L371 247 L337 286 L371 321 Q383 333 386.5 347.5 Q390 362 389.5 380 Q389 398 392 409 Q398 437 462 465 Q468 468 471 463.5 Q474 459 472 456 Q466 450 449 416 Q442 411 443 398.5 Q444 386 463 372 Q492 352 511 383 Q514 389 524 403.5 Q534 418 535 420 Q537 425 541.5 424.5 Q546 424 547 416 Z M118 74 L245 198 L283 155 L160 34 Q150 24 141 32 L118 55 Q107 64 118 74 Z " />
<glyph glyph-name="cog" unicode="&#x2699;" horiz-adv-x="520" d="M430 250 Q430 214 470 189 Q464 169 453 148 Q418 157 385 126 Q358 97 368 58 Q348 48 326 40 Q303 81 260 81 Q217 81 194 40 Q172 48 152 58 Q162 98 135 126 Q108 153 67 143 Q60 156 50 184 Q91 210 91 250 Q91 286 50 312 Q60 340 67 353 Q104 344 135 375 Q162 403 152 443 Q173 454 194 460 Q217 420 260 420 Q303 420 326 460 Q347 454 368 443 Q358 404 385 375 Q418 344 453 353 Q464 332 470 312 Q430 287 430 250 Z M195.5 185.5 Q222 159 260 159 Q298 159 324.5 185.5 Q351 212 351 250 Q351 288 324.5 315 Q298 342 260 342 Q222 342 195.5 315 Q169 288 169 250 Q169 212 195.5 185.5 Z " />
<glyph glyph-name="warning" unicode="&#x26a0;" horiz-adv-x="582" d="M529 63 Q534 55 529 46 Q524 38 514 38 L68 38 Q59 38 54 46 Q48 55 53 63 L276 454 Q280 463 291 463 Q302 463 306 454 L529 63 Z M319 88 L319 138 L264 138 L264 88 L319 88 Z M319 175 L319 325 L264 325 L264 175 L319 175 Z " />
<glyph glyph-name="bolt" unicode="&#x26a1;" horiz-adv-x="302" d="M71 25 Q69 27 88.5 72 Q108 117 128 163 Q148 209 147 212 Q146 215 100 234.5 Q54 254 51 262 Q49 268 93 322 Q137 376 183 426.5 Q229 477 231 475 Q234 473 194 382 Q154 291 155 289 Q156 287 202.5 267.5 Q249 248 251 239 Q253 229 164 125.5 Q75 22 71 25 Z " />
<glyph glyph-name="thunder-cloud" unicode="&#x26c8;" horiz-adv-x="600" d="M430 322 Q480 322 515 288 Q550 254 550 205 Q550 156 515 122 Q480 88 430 88 L141 88 Q104 88 77 114 Q50 140 50 176 Q50 213 76.5 239 Q103 265 141 265 Q142 265 146 264.5 Q150 264 151 264 Q150 270 150 283 Q150 337 189 375 Q228 413 283 413 Q328 413 363 387 Q398 361 410 320 Q424 322 430 322 Z M334 214 Q341 222 341 229 Q341 239 326 245 L324 245 Q311 252 305 253 L330 311 Q333 311 333 321 Q333 328 329 330 Q321 335 312 326 Q311 325 297 310 Q283 295 266.5 277 Q250 259 244 251 Q238 242 238 236 Q238 225 253 221 L255 220 Q259 218 274 212 L248 155 L247 151 Q246 147 246 144 Q246 139 250 135 Q259 130 267 140 Q317 190 334 214 Z " />
<glyph glyph-name="voicemail" unicode="&#x2707;" horiz-adv-x="600" d="M435 365 Q483 365 516.5 331.5 Q550 298 550 250 Q550 203 516.5 169 Q483 135 435 135 L165 135 Q118 135 84 169 Q50 203 50 250 Q50 298 84 331.5 Q118 365 165 365 Q213 365 246.5 331.5 Q280 298 280 250 Q280 214 260 185 L340 185 Q320 217 320 250 Q320 298 354 331.5 Q388 365 435 365 Z M100 250 Q100 224 119 204.5 Q138 185 165 185 Q192 185 211 204.5 Q230 224 230 250 Q230 277 211 296 Q192 315 165 315 Q138 315 119 296 Q100 277 100 250 Z M389 204.5 Q408 185 435 185 Q462 185 481 204.5 Q500 224 500 250 Q500 277 481 296 Q462 315 435 315 Q408 315 389 296 Q370 277 370 250 Q370 224 389 204.5 Z " />
<glyph glyph-name="airplane" unicode="&#x2708;" horiz-adv-x="600" d="M184 15 L246 215 L156 215 L100 165 L50 165 L90 250 L50 335 L100 335 L156 285 L246 285 L184 485 L234 485 L346 285 L475 285 Q478 285 483 285 Q488 285 501 283 Q514 281 524 277.5 Q534 274 542 267 Q550 260 550 250 Q550 234 531 225.5 Q512 217 494 216 L475 215 L346 215 L234 15 L184 15 Z " />
<glyph glyph-name="mail" unicode="&#x2709;" horiz-adv-x="550" d="M65 368 Q49 377 51 388 Q52 395 64 395 L487 395 Q506 395 497 379 Q493 372 485 368 Q478 365 389 317 Q300 269 298 268 Q290 263 275 263 Q261 263 252 268 Q250 269 161 317 Q72 365 65 368 Z M490 318 Q500 323 500 313 L500 129 Q500 121 491.5 113 Q483 105 475 105 L75 105 Q67 105 58.5 113 Q50 121 50 129 L50 313 Q50 323 60 318 L252 218 Q261 213 275 213 Q289 213 298 218 L490 318 Z " />
<glyph glyph-name="pencil" unicode="&#x270e;" horiz-adv-x="491" d="M409 415 Q425 399 432.5 383 Q440 367 440 359 L440 351 L314 225 L169 81 L50 55 L75 175 L220 319 L346 445 Q373 451 409 415 Z M162 95 L174 107 Q173 129 148 154 Q137 165 125.5 171.5 Q114 178 108 178 L101 179 L90 167 L81 127 Q95 119 104 110 Q116 98 122 86 L162 95 Z " />
<glyph glyph-name="feather" unicode="&#x2712;" horiz-adv-x="450" d="M81 6 Q78 -4 68 2 Q59 6 60 19 Q62 69 85 132 Q35 209 59 290 Q64 274 75 251 Q86 228 97 211 Q108 194 113 196 Q117 198 113 237.5 Q109 277 107.5 320.5 Q106 364 120 399 Q131 421 160 446 Q189 471 212 481 Q200 458 195.5 434 Q191 410 193.5 395 Q196 380 204 379 Q210 379 246 439 Q282 499 299 500 Q322 502 356 485.5 Q390 469 397 453 Q403 441 397 413.5 Q391 386 377 372 Q355 350 304 341 Q253 332 247 329 Q239 324 253 312 Q280 288 341 302 Q313 262 273 245 Q233 228 207 226 Q181 224 180 221 Q178 209 204.5 194 Q231 179 255 187 Q240 159 223.5 145 Q207 131 196.5 127.5 Q186 124 158.5 122 Q131 120 116 118 Q106 86 81 6 Z " />
<glyph glyph-name="check" unicode="&#x2713;" horiz-adv-x="435" d="M175 75 Q158 75 147 89 L57 207 Q49 219 51 233 Q53 247 64 256 Q75 265 89.5 263 Q104 261 113 249 L172 172 L320 409 Q328 421 341.5 424 Q355 427 368 420 Q380 412 383 398.5 Q386 385 379 372 L204 92 Q194 76 176 76 L175 75 Z " />
<glyph glyph-name="circled-cross" unicode="&#x2716;" horiz-adv-x="520" d="M111.5 398.5 Q173 460 260 460 Q347 460 408.5 398.5 Q470 337 470 250 Q470 163 408.5 101.5 Q347 40 260 40 Q173 40 111.5 101.5 Q50 163 50 250 Q50 337 111.5 398.5 Z M303 250 L380 327 L337 370 L260 294 L184 370 L140 327 L217 250 L140 174 L184 131 L260 207 L337 131 L380 174 L303 250 Z " />
<glyph glyph-name="cross" unicode="&#x274c;" horiz-adv-x="336" d="M277 172 Q286 163 286 150.5 Q286 138 277 129 Q268 121 255.5 121 Q243 121 234 129 L168 205 L102 129 Q93 121 80.5 121 Q68 121 59 129 Q51 138 51 150.5 Q51 163 59 172 L128 250 L59 329 Q51 338 51 350.5 Q51 363 59 372 Q68 380 80.5 380 Q93 380 102 372 L168 296 L234 372 Q243 380 255.5 380 Q268 380 277 372 Q286 363 286 350.5 Q286 338 277 329 L208 250 L277 172 Z " />
<glyph glyph-name="squared-cross" unicode="&#x274e;" horiz-adv-x="500" d="M400 450 Q421 450 435.5 435.5 Q450 421 450 400 L450 100 Q450 80 435.5 65 Q421 50 400 50 L100 50 Q80 50 65 65 Q50 80 50 100 L50 400 Q50 421 65 435.5 Q80 450 100 450 L400 450 Z M327 131 L370 174 L293 250 L370 327 L327 370 L250 294 L174 370 L130 327 L207 250 L130 174 L174 131 L250 207 L327 131 Z " />
<glyph glyph-name="help" unicode="&#x2753;" horiz-adv-x="390" d="M297 445 Q340 414 340 353 Q340 321 319 291 Q313 281 275 251 L252 236 Q232 219 228 206 Q225 198 224 184 Q224 177 216 177 L152 177 Q144 177 144 183 Q146 232 158 245 Q166 256 182 269 Q198 282 210 290 L222 297 Q233 305 239 314 Q253 336 253 349 Q253 369 240 388 Q226 406 194 406 Q160 406 147 384 Q133 363 133 338 L50 338 Q53 419 107 454 Q142 475 190 475 Q255 475 297 445 Z M189 127 Q211 127 225.5 112 Q240 97 239 75 Q238 52 223 38.5 Q208 25 186 26 Q164 26 149.5 40.5 Q135 55 136 78 Q137 101 152 114.5 Q167 128 189 127 Z " />
<glyph glyph-name="quote" unicode="&#x275e;" horiz-adv-x="481" d="M123 415 Q196 415 215 342 Q234 272 195 191 Q155 107 83 89 Q67 85 50 85 L50 120 Q106 120 141 174 Q168 217 154 247 Q146 265 123 265 Q93 265 71.5 287 Q50 309 50 340 Q50 371 71.5 393 Q93 415 123 415 Z M333 415 Q406 415 425 342 Q444 272 405 191 Q365 107 293 89 Q277 85 260 85 L260 120 Q316 120 351 174 Q378 217 364 247 Q356 265 333 265 Q303 265 281.5 287 Q260 309 260 340 Q260 371 281.5 393 Q303 415 333 415 Z " />
<glyph glyph-name="plus" unicode="&#x2795;" horiz-adv-x="390" d="M325 275 Q340 275 340 250 Q340 225 325 225 L220 225 L220 120 Q220 105 195 105 Q170 105 170 120 L170 225 L65 225 Q50 225 50 250 Q50 275 65 275 L170 275 L170 380 Q170 395 195 395 Q220 395 220 380 L220 275 L325 275 Z " />
<glyph glyph-name="minus" unicode="&#x2796;" horiz-adv-x="390" d="M325 275 Q340 275 340 250 Q340 225 325 225 L65 225 Q50 225 50 250 Q50 275 65 275 L325 275 Z " />
<glyph glyph-name="right" unicode="&#x27a1;" horiz-adv-x="465" d="M225 415 L415 250 L225 85 L225 181 L50 181 L50 320 L225 320 L225 415 Z " />
<glyph glyph-name="direction" unicode="&#x27a2;" horiz-adv-x="530" d="M465.5 464.5 Q470 463 474 459 Q478 455 479.5 451 Q481 447 478.5 440 Q476 433 473.5 427 Q471 421 464 407.5 Q457 394 452 383 Q425 327 378.5 240 Q332 153 300 94 L267 35 L240 225 L50 253 Q271 376 398 437 Q408 442 422 449.5 Q436 457 441.5 459.5 Q447 462 454 464 Q461 466 465.5 464.5 Z M428 411 L276 271 L290 154 L428 411 Z " />
<glyph glyph-name="forward" unicode="&#x27a6;" horiz-adv-x="550" d="M320 201 Q215 201 154 178.5 Q93 156 50 80 Q52 90 56.5 106.5 Q61 123 81.5 165 Q102 207 129.5 239 Q157 271 207.5 297.5 Q258 324 320 324 L320 420 L500 259 L320 92 L320 201 Z " />
<glyph glyph-name="ccw" unicode="&#x27f2;" horiz-adv-x="570" d="M316 443 Q401 443 460.5 383 Q520 323 520 238 Q520 153 460.5 93 Q401 33 316 33 Q245 33 190 77 L225 114 Q267 84 316 84 Q379 84 424 129 Q469 174 469 238 Q469 302 424 347 Q379 392 316 392 Q254 392 209 348.5 Q164 305 163 243 L234 243 L142 141 L50 243 L112 243 Q113 326 173 384.5 Q233 443 316 443 Z " />
<glyph glyph-name="cw" unicode="&#x27f3;" horiz-adv-x="570" d="M110 395 Q170 455 254 455 Q338 455 397.5 397 Q457 339 459 256 L520 256 L428 153 L336 256 L408 256 Q406 318 361 361 Q316 404 254 404 Q191 404 146 359 Q101 314 101 250 Q101 187 146 142 Q191 97 254 97 Q306 97 345 127 L380 89 Q325 45 254 45 Q170 45 110 105 Q50 165 50 250 Q50 335 110 395 Z " />
<glyph glyph-name="left" unicode="&#x2b05;" horiz-adv-x="465" d="M239 85 L50 250 L239 415 L239 320 L415 320 L415 181 L239 181 L239 85 Z " />
<glyph glyph-name="up" unicode="&#x2b06;" horiz-adv-x="430" d="M380 243 L284 243 L284 68 L146 68 L146 243 L50 243 L215 433 L380 243 Z " />
<glyph glyph-name="down" unicode="&#x2b07;" horiz-adv-x="430" d="M380 258 L215 68 L50 258 L146 258 L146 433 L284 433 L284 258 L380 258 Z " />
<glyph glyph-name="add-to-list" unicode="&#xe003;" horiz-adv-x="600" d="M225 275 Q236 275 243 267.5 Q250 260 250 250 Q250 240 242.5 232.5 Q235 225 225 225 L75 225 Q65 225 57.5 232.5 Q50 240 50 250 Q50 260 57 267.5 Q64 275 75 275 L225 275 Z M225 175 Q236 175 243 167.5 Q250 160 250 150 Q250 140 242.5 132.5 Q235 125 225 125 L75 125 Q65 125 57.5 132.5 Q50 140 50 150 Q50 160 57 167.5 Q64 175 75 175 L225 175 Z M535 275 Q550 275 550 250 Q550 225 535 225 L450 225 L450 140 Q450 125 425 125 Q400 125 400 140 L400 225 L318 225 Q303 225 303 250 Q303 275 318 275 L400 275 L400 360 Q400 375 425 375 Q450 375 450 360 L450 275 L535 275 Z M225 375 Q236 375 243 367.5 Q250 360 250 350 Q250 340 242.5 332.5 Q235 325 225 325 L75 325 Q65 325 57.5 332.5 Q50 340 50 350 Q50 360 57 367.5 Q64 375 75 375 L225 375 Z " />
<glyph glyph-name="numbered-list" unicode="&#xe005;" horiz-adv-x="450" d="M100 175 Q110 175 117.5 167.5 Q125 160 125 150 Q125 140 117.5 132.5 Q110 125 100 125 L75 125 Q65 125 57.5 132.5 Q50 140 50 150 Q50 160 57 167.5 Q64 175 75 175 L100 175 Z M100 275 Q110 275 117.5 267.5 Q125 260 125 250 Q125 240 117.5 232.5 Q110 225 100 225 L75 225 Q65 225 57.5 232.5 Q50 240 50 250 Q50 260 57 267.5 Q64 275 75 275 L100 275 Z M100 375 Q110 375 117.5 367.5 Q125 360 125 350 Q125 340 117.5 332.5 Q110 325 100 325 L75 325 Q65 325 57.5 332.5 Q50 340 50 350 Q50 360 57 367.5 Q64 375 75 375 L100 375 Z M200 325 Q190 325 182.5 332.5 Q175 340 175 350 Q175 360 182.5 367.5 Q190 375 200 375 L375 375 Q386 375 393 367.5 Q400 360 400 350 Q400 340 392.5 332.5 Q385 325 375 325 L200 325 Z M375 275 Q386 275 393 267.5 Q400 260 400 250 Q400 240 392.5 232.5 Q385 225 375 225 L200 225 Q190 225 182.5 232.5 Q175 240 175 250 Q175 260 182.5 267.5 Q190 275 200 275 L375 275 Z M375 175 Q386 175 393 167.5 Q400 160 400 150 Q400 140 392.5 132.5 Q385 125 375 125 L200 125 Q190 125 182.5 132.5 Q175 140 175 150 Q175 160 182.5 167.5 Q190 175 200 175 L375 175 Z " />
<glyph glyph-name="left-bold" unicode="&#xe4ad;" horiz-adv-x="465" d="M239 440 L239 345 L415 345 L415 156 L239 156 L239 60 L50 250 L239 440 Z " />
<glyph glyph-name="right-bold" unicode="&#xe4ae;" horiz-adv-x="465" d="M225 440 L415 250 L225 60 L225 156 L50 156 L50 345 L225 345 L225 440 Z " />
<glyph glyph-name="up-bold" unicode="&#xe4af;" horiz-adv-x="480" d="M430 243 L334 243 L334 68 L146 68 L146 243 L50 243 L240 433 L430 243 Z " />
<glyph glyph-name="down-bold" unicode="&#xe4b0;" horiz-adv-x="480" d="M430 258 L240 68 L50 258 L146 258 L146 433 L334 433 L334 258 L430 258 Z " />
<glyph glyph-name="add-user" unicode="&#xe700;" horiz-adv-x="600" d="M360 139 Q450 107 450 78 L450 25 L50 25 L50 126 Q68 133 91 139 Q138 156 155.5 173.5 Q173 191 173 221 Q173 232 161.5 245 Q150 258 146 282 Q145 288 134.5 294.5 Q124 301 122 325 Q122 333 124.5 338 Q127 343 129 344 L131 346 Q127 371 125 390 Q122 417 145 446 Q168 475 225 475 Q282 475 305 446 Q328 417 326 390 L319 346 Q328 342 328 325 Q327 311 323.5 303.5 Q320 296 316.5 295 Q313 294 309.5 291 Q306 288 305 282 Q300 259 288.5 245.5 Q277 232 277 221 Q277 191 295 173.5 Q313 156 360 139 Z M475 275 L550 275 L550 225 L475 225 L475 150 L425 150 L425 225 L350 225 L350 275 L425 275 L425 350 L475 350 L475 275 Z " />
<glyph glyph-name="circled-help" unicode="&#xe704;" horiz-adv-x="562" d="M116 410.5 Q183 479 278 480 Q373 481 441 415 Q509 349 511 254 Q512 159 445.5 90.5 Q379 22 284 20 Q189 19 120.5 85.5 Q52 152 51 247 Q49 342 116 410.5 Z M277 110 Q292 110 301.5 119.5 Q311 129 311 143 Q312 158 302.5 167.5 Q293 177 278 177 L277 177 Q263 177 253.5 168 Q244 159 243 145 Q243 130 252.5 120.5 Q262 111 276 110 L277 110 Z M360 274 Q373 291 373 313 Q373 352 346 371 Q320 390 279 390 Q247 390 227 377 Q193 356 191 304 L191 302 L246 302 L246 304 Q246 317 254 331 Q262 343 281 343 Q301 343 307 333 Q315 323 315 311 Q315 302 307 291 Q303 285 297 281 L294 279 Q291 277 286 273.5 Q281 270 276 266 Q271 262 265.5 257.5 Q260 253 257 249 Q250 239 248 210 L248 206 L302 206 L302 208 Q302 214 304 222 Q307 232 318 240 L332 249 Q355 266 360 274 Z " />
<glyph glyph-name="circled-info" unicode="&#xe705;" horiz-adv-x="562" d="M116 410.5 Q183 479 278 480 Q373 481 441 415 Q509 349 511 254 Q512 159 445.5 90.5 Q379 22 284 20 Q189 19 120.5 85.5 Q52 152 51 247 Q49 342 116 410.5 Z M304 404 Q283 404 271.5 392 Q260 380 260 367 Q259 353 267.5 345 Q276 337 292 337 Q311 337 322.5 348 Q334 359 334 375 Q334 404 304 404 Z M244 107 Q259 107 286 120 Q313 133 339 159 L330 171 Q306 153 294 153 Q287 153 292 172 L313 252 Q326 300 302 300 Q287 300 257.5 285.5 Q228 271 200 248 L208 235 Q234 252 245 252 Q251 252 245 235 L227 159 Q214 107 244 107 Z " />
<glyph glyph-name="eye" unicode="&#xe70a;" horiz-adv-x="600" d="M211.5 377.5 Q254 390 300 390 Q346 390 388.5 377.5 Q431 365 459 346.5 Q487 328 508.5 308 Q530 288 540 272.5 Q550 257 550 250 Q550 243 540 228 Q530 213 508.5 192.5 Q487 172 459 153.5 Q431 135 388.5 122.5 Q346 110 300 110 Q254 110 211.5 122.5 Q169 135 141 153.5 Q113 172 91.5 192.5 Q70 213 60 228 Q50 243 50 250 Q50 257 60 272.5 Q70 288 91.5 308 Q113 328 141 346.5 Q169 365 211.5 377.5 Z M221.5 174.5 Q254 143 300 143 Q346 143 378.5 174.5 Q411 206 411 250 Q411 295 378.5 326.5 Q346 358 300 358 Q254 358 221.5 326.5 Q189 295 189 250 Q189 206 221.5 174.5 Z M300 250 Q304 246 318.5 249 Q333 252 343.5 254.5 Q354 257 356 250 Q356 228 339.5 212.5 Q323 197 300 197 Q277 197 261 212.5 Q245 228 245 250 Q245 273 261 288.5 Q277 304 300 304 Q307 304 305 292.5 Q303 281 299 269 Q295 257 300 250 Z " />
<glyph glyph-name="tag" unicode="&#xe70c;" horiz-adv-x="580" d="M522 490 Q540 437 518 390.5 Q496 344 454 312 L463 300 Q471 286 466 273 L442 194 Q436 179 424 171 L192 7 Q171 -8 160 9 L55 161 Q49 170 50.5 180.5 Q52 191 61 197 L293 361 Q306 370 320 370 L399 370 Q414 370 423 357 L437 337 Q521 402 494 480 Q489 494 503 500 Q519 504 522 490 Z M414 256 Q434 272 431 296 L415 288 Q411 286 409 286 Q400 286 395 295 Q389 310 403 315 L415 322 Q391 339 369 322 Q355 313 352 296.5 Q349 280 359 266 Q368 253 384.5 250 Q401 247 414 256 Z " />
<glyph glyph-name="upload-cloud" unicode="&#xe711;" horiz-adv-x="600" d="M430 322 Q480 322 515 288 Q550 254 550 205 Q550 156 515 122 Q480 88 430 88 L335 88 L335 183 L388 183 L300 298 L213 183 L265 183 L265 88 L141 88 Q104 88 77 114 Q50 140 50 176 Q50 213 76.5 239 Q103 265 141 265 Q148 265 151 264 Q150 270 150 283 Q150 337 189 375 Q228 413 283 413 Q328 413 363 387 Q398 361 410 320 Q424 322 430 322 Z " />
<glyph glyph-name="reply" unicode="&#xe712;" horiz-adv-x="550" d="M500 80 Q457 156 396 178.5 Q335 201 231 201 L231 92 L50 259 L231 420 L231 324 Q276 324 315 310.5 Q354 297 380.5 275.5 Q407 254 428.5 228 Q450 202 463 176 Q476 150 485 128.5 Q494 107 497 94 L500 80 Z " />
<glyph glyph-name="reply-all" unicode="&#xe713;" horiz-adv-x="600" d="M231 353 L125 259 L231 161 L231 92 L50 259 L231 420 L231 353 Z M356 324 Q408 324 447 299 Q486 274 504.5 238 Q523 202 534.5 166 Q546 130 548 105 L550 80 Q507 157 466 179 Q425 201 356 201 L356 92 L175 259 L356 420 L356 324 Z " />
<glyph glyph-name="code" unicode="&#xe714;" horiz-adv-x="600" d="M240 393 Q248 386 248 377 Q248 368 240 362 L117 250 L240 137 Q248 131 248 122 Q248 113 240 106 Q225 91 210 106 L50 250 L210 393 Q225 408 240 393 Z M391 393 L550 250 L391 106 Q375 91 360 106 Q344 122 360 137 L484 250 L360 362 Q344 377 360 393 Q375 408 391 393 Z " />
<glyph glyph-name="export" unicode="&#xe715;" horiz-adv-x="600" d="M425 105 L425 133 L475 174 L475 80 Q475 70 467.5 62.5 Q460 55 450 55 L75 55 Q65 55 57.5 62.5 Q50 70 50 80 L50 355 Q50 366 57 373 Q64 380 75 380 L219 380 Q203 368 189.5 355.5 Q176 343 170 336 L165 330 L100 330 L100 105 L425 105 Z M384 279 Q301 279 263 258.5 Q225 238 183 168 Q183 172 183.5 179 Q184 186 188 207 Q192 228 199 246.5 Q206 265 221 288 Q236 311 256 327.5 Q276 344 309.5 355.5 Q343 367 384 367 L384 445 L550 320 L384 190 L384 279 Z " />
<glyph glyph-name="print" unicode="&#xe716;" horiz-adv-x="590" d="M83 338 Q70 338 72 349 Q74 354 78 356 Q79 356 102.5 364.5 Q126 373 149 380.5 Q172 388 178 388 L200 388 L200 463 L390 463 L390 388 L413 388 Q419 388 441.5 380.5 Q464 373 487.5 364.5 Q511 356 512 356 Q521 352 518 343 Q516 338 508 338 L83 338 Z M513 310 Q523 310 531.5 300.5 Q540 291 540 280 L540 193 Q540 182 531.5 172.5 Q523 163 513 163 L463 163 L485 38 L105 38 L127 163 L78 163 Q68 163 59 172.5 Q50 182 50 193 L50 280 Q50 291 59 300.5 Q68 310 78 310 L513 310 Z M155 88 L435 88 L400 250 L190 250 L155 88 Z " />
<glyph glyph-name="retweet" unicode="&#xe717;" horiz-adv-x="600" d="M175 170 L311 170 L375 100 L151 100 Q130 100 115.5 115 Q101 130 101 150 L101 301 L50 301 L138 400 L225 301 L175 301 L175 170 Z M500 200 L550 200 L463 100 L375 200 L426 200 L426 330 L289 330 L225 400 L450 400 Q470 400 485 385.5 Q500 371 500 350 L500 200 Z " />
<glyph glyph-name="comment" unicode="&#xe718;" horiz-adv-x="500" d="M400 425 Q421 425 435.5 410.5 Q450 396 450 375 L450 200 Q450 180 435.5 165 Q421 150 400 150 L300 150 L300 75 L200 150 L100 150 Q80 150 65 165 Q50 180 50 200 L50 375 Q50 396 65 410.5 Q80 425 100 425 L400 425 Z " />
<glyph glyph-name="chat" unicode="&#xe720;" horiz-adv-x="600" d="M195 195 L370 195 Q371 195 373 196 L375 196 L375 150 Q375 130 360.5 115 Q346 100 325 100 L200 100 L125 25 L125 100 L100 100 Q80 100 65 115 Q50 130 50 150 L50 300 Q50 321 65 335.5 Q80 350 100 350 L195 350 L195 195 Z M500 475 Q521 475 535.5 460.5 Q550 446 550 425 L550 275 Q550 255 535.5 240 Q521 225 500 225 L475 225 L475 150 L400 225 L225 225 L225 425 Q225 446 240 460.5 Q255 475 275 475 L500 475 Z " />
<glyph glyph-name="vcard" unicode="&#xe722;" horiz-adv-x="600" d="M500 450 Q521 450 535.5 435.5 Q550 421 550 400 L550 100 Q550 80 535.5 65 Q521 50 500 50 L100 50 Q80 50 65 65 Q50 80 50 100 L50 400 Q50 421 65 435.5 Q80 450 100 450 L500 450 Z M500 100 L500 400 L100 400 L100 100 L500 100 Z M275 198 L275 153 L150 153 L150 198 L275 198 Z M275 273 L275 228 L150 228 L150 273 L275 273 Z M275 348 L275 303 L150 303 L150 348 L275 348 Z M448 188 L450 153 L325 153 Q325 188 328 188 Q370 199 370 221 Q370 229 356.5 249 Q343 269 343 293 Q343 348 388 348 Q433 348 433 293 Q433 269 419 249 Q405 229 405 221 Q405 211 415.5 203 Q426 195 437 192 L448 188 Z " />
<glyph glyph-name="address" unicode="&#xe723;" horiz-adv-x="600" d="M263 475 Q273 475 273 465 L273 35 Q273 25 263 25 L240 25 Q230 25 230 35 L230 255 L142 255 Q134 255 128 258 Q122 259 115 264 L55 305 Q50 308 50 313 Q50 318 55 321 L115 362 Q122 367 128 368 Q132 370 142 370 L230 370 L230 465 Q230 475 240 475 L263 475 Z M545 371 Q550 368 550 363 Q550 358 545 355 L486 314 Q475 308 473 308 Q466 305 459 305 L308 305 L288 420 L459 420 Q468 420 473 418 Q478 416 486 412 L545 371 Z " />
<glyph glyph-name="location" unicode="&#xe724;" horiz-adv-x="350" d="M86.5 413.5 Q123 450 175 450 Q227 450 263.5 413.5 Q300 377 300 325 Q300 272 269 203.5 Q238 135 206 92 L175 50 Q170 56 161.5 67.5 Q153 79 131.5 112 Q110 145 93.5 177 Q77 209 63.5 250.5 Q50 292 50 325 Q50 377 86.5 413.5 Z M127.5 276 Q147 256 175 256 Q203 256 223 276 Q243 296 243 324 Q243 352 223 371.5 Q203 391 175 391 Q147 391 127.5 371.5 Q108 352 108 324 Q108 296 127.5 276 Z " />
<glyph glyph-name="map" unicode="&#xe727;" horiz-adv-x="600" d="M542 375 Q550 370 550 360 L550 68 Q550 58 542 53 Q538 50 534 50 Q530 50 525 53 L417 121 L309 53 Q300 48 292 53 L183 121 L75 53 Q67 48 58 53 Q50 58 50 68 L50 360 Q50 370 58 375 L175 448 Q184 453 192 448 L300 380 L409 448 Q417 453 425 448 L542 375 Z M167 150 L167 403 L83 351 L83 98 L167 150 Z M284 98 L284 351 L200 403 L200 150 L284 98 Z M401 150 L401 403 L316 351 L316 98 L401 150 Z M517 98 L517 351 L433 403 L433 150 L517 98 Z " />
<glyph glyph-name="compass" unicode="&#xe728;" horiz-adv-x="582" d="M288 490 Q387 491 458 422 Q529 353 531 254 Q532 154 463 83 Q394 12 294 10 Q195 9 123.5 78.5 Q52 148 51 247 Q49 347 118.5 418 Q188 489 288 490 Z M294 61 Q372 62 427 118 Q482 174 481 253 Q480 332 423.5 386.5 Q367 441 289 440 Q210 439 155.5 383 Q101 327 102 248 Q103 169 159 114.5 Q215 60 294 61 Z M177 138 Q179 151 183 171 Q187 191 203.5 235 Q220 279 242 301 Q264 323 304.5 339 Q345 355 375 360 L405 365 Q403 352 399 332 Q395 312 378.5 268 Q362 224 340 202 Q319 181 278 165 Q237 149 207 144 L177 138 Z M267 276 Q256 266 256 252 Q256 238 267 227 Q277 216 291.5 216 Q306 216 316 227 Q342 253 360 320 Q292 302 267 276 Z " />
<glyph glyph-name="trash" unicode="&#xe729;" horiz-adv-x="480" d="M75 304 Q136 269 240 269 Q344 269 405 304 L378 61 Q377 54 360.5 43 Q344 32 310.5 21.5 Q277 11 240 11 Q203 11 170 21.5 Q137 32 120 43 Q103 54 102 61 L75 304 Z M319 454 Q366 445 398 426.5 Q430 408 430 391 L430 386 Q430 357 374 336.5 Q318 316 240 316 Q162 316 106 336.5 Q50 357 50 386 L50 391 Q50 408 82 426.5 Q114 445 161 454 L182 478 Q193 491 217 491 L263 491 Q289 491 298 478 L319 454 Z M292 398 L334 398 Q288 453 282 461 Q275 469 266 469 L215 469 Q204 469 199 461 L146 398 L188 398 L220 431 L261 431 L292 398 Z " />
<glyph glyph-name="doc" unicode="&#xe730;" horiz-adv-x="450" d="M350 475 Q371 475 385.5 460.5 Q400 446 400 425 L400 75 Q400 55 385.5 40 Q371 25 350 25 L100 25 Q80 25 65 40 Q50 55 50 75 L50 425 Q50 446 65 460.5 Q80 475 100 475 L350 475 Z M350 75 L350 425 L100 425 L100 75 L350 75 Z " />
<glyph glyph-name="text-doc-inverted" unicode="&#xe731;" horiz-adv-x="450" d="M350 475 Q371 475 385.5 460.5 Q400 446 400 425 L400 75 Q400 55 385.5 40 Q371 25 350 25 L100 25 Q80 25 65 40 Q50 55 50 75 L50 425 Q50 446 65 460.5 Q80 475 100 475 L350 475 Z M120 371 L120 327 L330 327 L330 371 L120 371 Z M330 131 L330 175 L120 175 L120 131 L330 131 Z M330 229 L330 274 L121 274 L121 229 L330 229 Z " />
<glyph glyph-name="docs" unicode="&#xe736;" horiz-adv-x="601" d="M535 315 Q554 310 550 292 L475 14 Q473 6 466 2.5 Q459 -1 451 1 L248 56 Q240 58 236 65 Q232 72 234 79 L246 125 L156 101 Q136 96 131 114 L51 415 Q46 433 65 439 L292 500 Q300 502 307 498.5 Q314 495 316 487 L349 365 L535 315 Z M91 410 L163 139 L359 192 L287 462 L91 410 Z M442 39 L508 285 L359 326 L397 185 Q402 168 383 162 L285 136 L272 85 L442 39 Z " />
<glyph glyph-name="landscape-doc" unicode="&#xe737;" horiz-adv-x="600" d="M50 375 Q50 396 65 410.5 Q80 425 100 425 L500 425 Q521 425 535.5 410.5 Q550 396 550 375 L550 125 Q550 105 535.5 90 Q521 75 500 75 L100 75 Q80 75 65 90 Q50 105 50 125 L50 375 Z M500 375 L100 375 L100 125 L500 125 L500 375 Z " />
<glyph glyph-name="rss" unicode="&#xe73a;" horiz-adv-x="480" d="M50 440 Q207 440 318.5 328.5 Q430 217 430 60 L371 60 Q371 193 277 286.5 Q183 380 50 380 L50 440 Z M50 321 Q159 321 235.5 244.5 Q312 168 312 60 L253 60 Q253 143 193.5 202.5 Q134 262 50 262 L50 321 Z M67 156.5 Q84 173 107 173 Q130 173 147 156.5 Q164 140 164 116 Q164 93 147 76.5 Q130 60 107 60 Q84 60 67 76.5 Q50 93 50 116 Q50 140 67 156.5 Z " />
<glyph glyph-name="share" unicode="&#xe73c;" horiz-adv-x="500" d="M375 175 Q406 175 428 153.5 Q450 132 450 100 Q450 69 428 47 Q406 25 375 25 Q344 25 322 47 Q300 69 300 100 Q300 103 300.5 107 Q301 111 301 113 L171 191 Q150 175 125 175 Q94 175 72 197 Q50 219 50 250 Q50 281 72 303 Q94 325 125 325 Q152 325 171 310 L301 388 Q301 390 300.5 394 Q300 398 300 400 Q300 431 322 453 Q344 475 375 475 Q406 475 428 453.5 Q450 432 450 400 Q450 369 428 347 Q406 325 375 325 Q349 325 330 341 L199 263 Q200 259 200 250 Q200 242 199 238 L330 160 Q348 175 375 175 Z " />
<glyph glyph-name="cart" unicode="&#xe73d;" horiz-adv-x="550" d="M125 75 Q125 95 140 110 Q155 125 175 125 Q196 125 210.5 110 Q225 95 225 75 Q225 54 210.5 39.5 Q196 25 175 25 Q155 25 140 39.5 Q125 54 125 75 Z M375 75 Q375 95 390 110 Q405 125 425 125 Q446 125 460.5 110 Q475 95 475 75 Q475 54 460.5 39.5 Q446 25 425 25 Q405 25 390 39.5 Q375 54 375 75 Z M214 193 Q196 188 197 181.5 Q198 175 219 175 L500 175 L500 137 Q500 127 490 127 L425 127 L175 127 L163 127 Q153 127 153 137 L153 175 L148 198 L99 425 L50 425 L50 465 Q50 475 60 475 L138 475 Q148 475 148 465 L148 422 L500 422 L500 285 Q500 274 491 272 L214 193 Z " />
<glyph glyph-name="shareable" unicode="&#xe73e;" horiz-adv-x="600" d="M220 250 Q220 284 243.5 307 Q267 330 300 330 Q333 330 356.5 307 Q380 284 380 250 Q380 217 356.5 193.5 Q333 170 300 170 Q267 170 243.5 193.5 Q220 217 220 250 Z M163 280 Q156 250 130 250 L50 250 L50 310 L109 310 Q129 372 181.5 411 Q234 450 300 450 Q382 450 442 392 Q450 383 450 370.5 Q450 358 442 349 Q433 341 420.5 341 Q408 341 399 349 Q360 390 300 390 Q250 390 212 359 Q174 328 163 280 Z M470 250 L550 250 L550 190 L491 190 Q471 128 419 89 Q367 50 300 50 Q218 50 159 109 Q150 118 150 130.5 Q150 143 159 151 Q167 160 179.5 160 Q192 160 201 151 Q242 110 300 110 Q350 110 388 141.5 Q426 173 437 220 Q443 250 470 250 Z " />
<glyph glyph-name="login" unicode="&#xe740;" horiz-adv-x="550" d="M450 475 Q471 475 485.5 460.5 Q500 446 500 425 L500 75 Q500 55 485.5 40 Q471 25 450 25 L225 25 Q205 25 190.5 40 Q176 55 176 75 L176 125 L225 125 L225 75 L450 75 L450 425 L225 425 L225 350 L176 350 L176 425 Q176 446 190.5 460.5 Q205 475 225 475 L450 475 Z M275 140 L275 200 L50 200 L50 275 L275 275 L275 335 L375 238 L275 140 Z " />
<glyph glyph-name="logout" unicode="&#xe741;" horiz-adv-x="550" d="M301 75 L301 125 L350 125 L350 75 Q350 55 335.5 40 Q321 25 300 25 L100 25 Q80 25 65 40 Q50 55 50 75 L50 425 Q50 446 65 460.5 Q80 475 100 475 L300 475 Q321 475 335.5 460.5 Q350 446 350 425 L350 350 L301 350 L301 425 L100 425 L100 75 L301 75 Z M500 238 L401 140 L401 200 L176 200 L176 275 L401 275 L401 335 L500 238 Z " />
<glyph glyph-name="resize-full" unicode="&#xe744;" horiz-adv-x="496" d="M288 448 L446 448 L446 290 L396 352 L323 276 L273 326 L349 399 L288 448 Z M173 226 L223 176 L147 103 L208 53 L50 53 L50 211 L100 150 L173 226 Z " />
<glyph glyph-name="resize-small" unicode="&#xe746;" horiz-adv-x="550" d="M128 148 L75 198 L223 198 L223 50 L173 103 L100 25 L50 75 L128 148 Z M500 425 L423 353 L475 303 L328 303 L328 450 L378 398 L450 475 L500 425 Z " />
<glyph glyph-name="popup" unicode="&#xe74c;" horiz-adv-x="500" d="M400 450 Q421 450 435.5 435.5 Q450 421 450 400 L450 200 Q450 180 435.5 165 Q421 150 400 150 L200 150 Q180 150 165 165 Q150 180 150 200 L150 401 Q150 421 164.5 435.5 Q179 450 200 450 L400 450 Z M400 200 L400 400 L200 400 L200 200 L400 200 Z M100 250 L100 100 L250 100 L250 50 L100 50 Q80 50 65 65 Q50 80 50 100 L50 250 L100 250 Z " />
<glyph glyph-name="publish" unicode="&#xe74d;" horiz-adv-x="600" d="M500 475 Q521 475 535.5 460 Q550 445 550 425 L550 125 Q550 104 535.5 89.5 Q521 75 500 75 L401 75 L401 124 L501 124 L501 355 L100 355 L100 124 L200 124 L200 75 L100 75 Q80 75 65 89.5 Q50 104 50 125 L50 425 Q50 445 65 460 Q80 475 100 475 L500 475 Z M115 391 Q134 391 134 410 Q134 418 128.5 423 Q123 428 115 428 Q107 428 101.5 422.5 Q96 417 96 410 Q96 402 101.5 396.5 Q107 391 115 391 Z M165 391 Q184 391 184 410 Q184 418 178.5 423 Q173 428 165 428 Q157 428 151.5 422.5 Q146 417 146 410 Q146 402 151.5 396.5 Q157 391 165 391 Z M501 394 L501 425 L200 425 L200 394 L501 394 Z M299 295 L420 175 L345 175 L345 25 L253 25 L253 175 L178 175 L299 295 Z " />
<glyph glyph-name="browser" unicode="&#xe74e;" horiz-adv-x="600" d="M500 450 Q521 450 535.5 435 Q550 420 550 400 L550 100 Q550 79 535.5 64.5 Q521 50 500 50 L100 50 Q80 50 65 64.5 Q50 79 50 100 L50 400 Q50 420 65 435 Q80 450 100 450 L500 450 Z M178.5 398 Q173 403 165 403 Q157 403 151.5 397.5 Q146 392 146 385 Q146 377 151.5 371.5 Q157 366 165 366 Q184 366 184 385 Q184 393 178.5 398 Z M96 385 Q96 377 101.5 371.5 Q107 366 115 366 Q134 366 134 385 Q134 393 128.5 398 Q123 403 115 403 Q107 403 101.5 397.5 Q96 392 96 385 Z M501 100 L501 330 L100 330 L100 100 L501 100 Z M501 370 L501 400 L200 400 L200 370 L501 370 Z " />
<glyph glyph-name="arrow-combo" unicode="&#xe74f;" horiz-adv-x="330" d="M165 500 L280 318 L50 318 L165 500 Z M165 0 L50 183 L280 183 L165 0 Z " />
<glyph glyph-name="circled-down" unicode="&#xe758;" horiz-adv-x="560" d="M117.5 412.5 Q185 480 280 480 Q375 480 442.5 412.5 Q510 345 510 250 Q510 155 442.5 87.5 Q375 20 280 20 Q185 20 117.5 87.5 Q50 155 50 250 Q50 345 117.5 412.5 Z M153 123 Q206 70 280 70 Q354 70 407 123 Q460 176 460 250 Q460 325 407 377.5 Q354 430 280 430 Q206 430 153 377.5 Q100 325 100 250 Q100 176 153 123 Z M325 347 L325 244 L381 244 L280 149 L179 244 L235 244 L235 347 L325 347 Z " />
<glyph glyph-name="circled-left" unicode="&#xe759;" horiz-adv-x="560" d="M510 250 Q510 155 442.5 87.5 Q375 20 280 20 Q185 20 117.5 87.5 Q50 155 50 250 Q50 346 117.5 413 Q185 480 280 480 Q375 480 442.5 413 Q510 346 510 250 Z M100 250 Q100 176 153 123 Q206 70 280 70 Q354 70 407 123 Q460 176 460 250 Q460 325 407 377.5 Q354 430 280 430 Q206 430 153 377.5 Q100 325 100 250 Z M376 205 L274 205 L274 149 L179 250 L274 352 L274 295 L376 295 L376 205 Z " />
<glyph glyph-name="circled-right" unicode="&#xe75a;" horiz-adv-x="560" d="M117.5 87.5 Q50 155 50 250 Q50 345 117.5 412.5 Q185 480 280 480 Q375 480 442.5 412.5 Q510 345 510 250 Q510 155 442.5 87.5 Q375 20 280 20 Q185 20 117.5 87.5 Z M460 250 Q460 325 407.5 377.5 Q355 430 280 430 Q206 430 153 377.5 Q100 325 100 250 Q100 176 153 123 Q206 70 280 70 Q355 70 407.5 123 Q460 176 460 250 Z M184 295 L286 295 L286 352 L381 250 L286 149 L286 205 L184 205 L184 295 Z " />
<glyph glyph-name="circled-up" unicode="&#xe75b;" horiz-adv-x="560" d="M442.5 87.5 Q375 20 280 20 Q185 20 117.5 87.5 Q50 155 50 250 Q50 346 117.5 413 Q185 480 280 480 Q375 480 442.5 413 Q510 346 510 250 Q510 155 442.5 87.5 Z M280 430 Q206 430 153 377.5 Q100 325 100 250 Q100 176 153 123 Q206 70 280 70 Q355 70 407.5 123 Q460 176 460 250 Q460 325 407.5 377.5 Q355 430 280 430 Z M235 154 L235 256 L179 256 L280 352 L381 256 L325 256 L325 154 L235 154 Z " />
<glyph glyph-name="chevron-down" unicode="&#xe75c;" horiz-adv-x="390" d="M332 286 L215 174 Q206 165 195 165 Q184 165 175 174 L58 286 Q50 294 50 306.5 Q50 319 58 327 Q77 346 97 327 L195 233 L293 327 Q313 346 332 327 Q340 319 340 306.5 Q340 294 332 286 Z " />
<glyph glyph-name="chevron-left" unicode="&#xe75d;" horiz-adv-x="270" d="M171 388 Q178 396 190.5 396 Q203 396 211 388 Q230 370 211 348 L118 250 L211 153 Q230 131 211 113 Q203 105 191 105 Q179 105 171 113 L58 231 Q50 239 50 250 Q50 262 58 270 Q161 377 171 388 Z " />
<glyph glyph-name="chevron-right" unicode="&#xe75e;" horiz-adv-x="270" d="M99 388 L212 270 Q220 262 220 250 Q220 239 212 231 L99 113 Q91 105 79 105 Q67 105 59 113 Q41 131 59 153 L152 250 L59 348 Q41 370 59 388 Q67 396 79.5 396 Q92 396 99 388 Z " />
<glyph glyph-name="chevron-up" unicode="&#xe75f;" horiz-adv-x="390" d="M332 215 Q340 207 340 194.5 Q340 182 332 174 Q313 155 293 174 L195 268 L97 174 Q77 155 58 174 Q50 182 50 194.5 Q50 207 58 215 L175 327 Q183 335 195 335 Q207 335 215 327 L332 215 Z " />
<glyph glyph-name="chevron-small-down" unicode="&#xe760;" horiz-adv-x="332" d="M252 310 Q263 323 276 310 Q289 299 276 286 L178 190 Q167 179 154 190 L56 286 Q43 299 56 310 Q68 322 81 310 L166 232 L252 310 Z " />
<glyph glyph-name="chevron-small-left" unicode="&#xe761;" horiz-adv-x="232" d="M176 165 Q189 152 176 141 Q163 128 152 141 L56 238 Q44 250 56 263 L152 360 Q163 373 176 360 Q189 349 176 336 L98 250 L176 165 Z " />
<glyph glyph-name="chevron-small-right" unicode="&#xe762;" horiz-adv-x="232" d="M56 165 L135 250 L56 336 Q43 349 56 360 Q69 373 80 360 L176 263 Q188 250 176 238 L80 141 Q69 128 56 141 Q43 152 56 165 Z " />
<glyph glyph-name="chevron-small-up" unicode="&#xe763;" horiz-adv-x="332" d="M81 190 Q68 179 56 190 Q44 202 56 215 L154 310 Q167 323 178 310 L276 215 Q288 202 276 190 Q264 179 251 190 L166 269 L81 190 Z " />
<glyph glyph-name="chevron-thin-down" unicode="&#xe764;" horiz-adv-x="532" d="M81 360 L266 182 L452 360 Q463 373 476 360 Q489 349 476 336 L278 140 Q267 129 254 140 L56 336 Q43 349 56 360 Q68 372 81 360 Z " />
<glyph glyph-name="chevron-thin-left" unicode="&#xe765;" horiz-adv-x="332" d="M276 65 Q289 52 276 41 Q263 28 252 41 L56 238 Q44 250 56 263 L252 460 Q263 473 276 460 Q289 449 276 436 L97 250 L276 65 Z " />
<glyph glyph-name="chevron-thin-right" unicode="&#xe766;" horiz-adv-x="332" d="M56 65 L235 250 L56 436 Q43 449 56 460 Q69 473 80 460 L276 263 Q288 250 276 238 L80 41 Q69 28 56 41 Q43 52 56 65 Z " />
<glyph glyph-name="chevron-thin-up" unicode="&#xe767;" horiz-adv-x="532" d="M452 140 L266 319 L81 140 Q68 129 56 140 Q44 152 56 165 L254 360 Q267 373 278 360 L476 165 Q488 152 476 140 Q463 129 452 140 Z " />
<glyph glyph-name="progress-0" unicode="&#xe768;" horiz-adv-x="600" d="M550 300 L550 175 Q550 154 535.5 139.5 Q521 125 500 125 L100 125 Q80 125 65 139.5 Q50 154 50 175 L50 325 Q50 345 65 360 Q80 375 100 375 L500 375 Q521 375 535.5 360 Q550 345 550 325 L550 300 Z M500 175 L500 325 L100 325 L100 175 L500 175 Z " />
<glyph glyph-name="progress-1" unicode="&#xe769;" horiz-adv-x="600" d="M550 300 L550 175 Q550 154 535.5 139.5 Q521 125 500 125 L100 125 Q80 125 65 139.5 Q50 154 50 175 L50 325 Q50 345 65 360 Q80 375 100 375 L500 375 Q521 375 535.5 360 Q550 345 550 325 L550 300 Z M500 175 L500 325 L100 325 L100 175 L500 175 Z M125 200 L125 299 L225 299 L225 200 L125 200 Z " />
<glyph glyph-name="progress-2" unicode="&#xe76a;" horiz-adv-x="600" d="M550 300 L550 175 Q550 154 535.5 139.5 Q521 125 500 125 L100 125 Q80 125 65 139.5 Q50 154 50 175 L50 325 Q50 345 65 360 Q80 375 100 375 L500 375 Q521 375 535.5 360 Q550 345 550 325 L550 300 Z M500 175 L500 325 L100 325 L100 175 L500 175 Z M125 200 L125 299 L225 299 L225 200 L125 200 Z M250 200 L250 299 L350 299 L350 200 L250 200 Z " />
<glyph glyph-name="progress-3" unicode="&#xe76b;" horiz-adv-x="600" d="M550 300 L550 175 Q550 154 535.5 139.5 Q521 125 500 125 L100 125 Q80 125 65 139.5 Q50 154 50 175 L50 325 Q50 345 65 360 Q80 375 100 375 L500 375 Q521 375 535.5 360 Q550 345 550 325 L550 300 Z M500 175 L500 325 L100 325 L100 175 L500 175 Z M125 200 L125 299 L225 299 L225 200 L125 200 Z M250 200 L250 299 L350 299 L350 200 L250 200 Z M375 299 L475 299 L475 200 L375 200 L375 299 Z " />
<glyph glyph-name="back-in-time" unicode="&#xe771;" horiz-adv-x="570" d="M316 455 Q401 455 460.5 395 Q520 335 520 250 Q520 165 460.5 105 Q401 45 316 45 Q247 45 190 89 L225 127 Q266 97 316 97 Q379 97 424 142 Q469 187 469 250 Q469 314 424 359 Q379 404 316 404 Q254 404 209.5 361 Q165 318 163 256 L234 256 L142 153 L50 256 L112 256 Q114 339 173.5 397 Q233 455 316 455 Z M298 360 L333 360 L333 258 L398 193 L373 168 L298 243 L298 360 Z " />
<glyph glyph-name="network" unicode="&#xe776;" horiz-adv-x="560" d="M162 327 Q151 327 141 322 Q117 348 95 386 Q122 423 159 445 Q205 426 235 404 Q232 396 232 388 Q232 385 234 377 Q203 353 176 325 Q168 327 162 327 Z M113 278 Q113 261 123 248 Q93 191 83 132 Q50 185 50 250 Q50 305 75 353 Q94 322 117 297 Q113 285 113 278 Z M281 437 Q267 437 256 430 Q227 451 199 465 Q241 480 280 480 Q340 480 395 449 Q357 442 314 424 Q301 437 281 437 Z M354 207 Q274 219 209 263 Q211 273 211 278 Q211 290 204 304 Q223 326 253 349 Q266 339 281 339 Q288 339 300 343 Q347 289 367 223 Q359 216 354 207 Z M418 141 Q437 148 445 171 Q474 173 499 180 Q476 107 416 64 Q419 88 419 113 Q419 118 418.5 127 Q418 136 418 141 Z M343 174 Q248 126 191 38 Q146 56 112 93 Q118 165 152 230 Q155 229 162 229 Q177 229 188 236 Q259 187 343 174 Z M435 420 Q510 352 510 250 Q510 239 508 217 Q476 208 443 205 Q431 233 399 235 Q375 308 325 367 Q330 377 330 388 L330 393 Q380 414 435 420 Z M367 148 Q374 143 383 139 Q384 130 384 113 Q384 73 377 41 Q334 20 280 20 Q251 20 224 26 Q279 106 367 148 Z " />
<glyph glyph-name="inbox" unicode="&#xe777;" horiz-adv-x="601" d="M534 274 Q554 253 549 238 L535 161 Q533 151 524 144.5 Q515 138 504 138 L96 138 Q85 138 76 144.5 Q67 151 65 161 L51 238 Q47 254 67 274 Q71 279 85 293 Q99 307 119 326.5 Q139 346 145 352 Q156 363 171 363 L300 363 L429 363 Q444 363 455 352 Q463 344 481.5 326 Q500 308 515 293.5 Q530 279 534 274 Z M401 258 L490 258 L439 315 L161 315 L110 258 L199 258 Q203 258 205 254 L225 204 L375 204 L395 254 Q397 258 401 258 Z " />
<glyph glyph-name="install" unicode="&#xe778;" horiz-adv-x="551" d="M492 228 Q504 202 499 180 L482 88 Q481 78 472.5 70.5 Q464 63 453 63 L97 63 Q86 63 77.5 70.5 Q69 78 68 88 L51 180 Q47 205 58 228 L137 415 Q148 438 173 438 L225 438 L215 336 L148 336 L275 231 L403 336 L335 336 L326 438 L377 438 Q402 438 414 415 L492 228 Z M458 162 Q459 173 453 181 Q447 189 436 189 L114 189 Q103 189 97 181 Q91 173 92 162 L99 125 Q100 114 108.5 106.5 Q117 99 127 99 L423 99 Q434 99 442.5 106.5 Q451 114 452 125 L458 162 Z " />
<glyph glyph-name="lifebuoy" unicode="&#xe788;" horiz-adv-x="562" d="M116 410.5 Q183 479 278 480 Q373 481 441 415 Q509 349 511 254 Q512 159 445.5 90.5 Q379 22 284 20 Q189 19 120.5 85.5 Q52 152 51 247 Q49 342 116 410.5 Z M278 450 Q231 450 189 428 L220 376 Q248 390 281 390 Q314 390 342 376 L373 428 Q329 451 278 450 Z M155 189 Q141 219 141 250 Q141 282 155 312 L104 343 Q81 299 81 248 Q82 200 104 158 L155 189 Z M284 50 Q333 52 373 73 L342 125 Q312 110 281 110 Q250 110 220 125 L189 73 Q232 50 284 50 Z M203 172.5 Q235 140 281 140 Q327 140 359 172.5 Q391 205 391 250 Q391 296 359 328 Q327 360 281 360 Q235 360 203 328 Q171 296 171 250 Q171 205 203 172.5 Z M407 189 L459 158 Q482 206 481 253 Q481 301 459 343 L407 312 Q421 282 421 250 Q421 219 407 189 Z " />
<glyph glyph-name="mouse" unicode="&#xe789;" horiz-adv-x="381" d="M325 140 Q339 100 316.5 61.5 Q294 23 247 6 Q200 -8 159.5 10.5 Q119 29 108 69 L55 261 Q45 295 58 328 Q71 361 100 381 L52 474 Q45 491 59 498 Q74 507 83 491 L132 395 Q172 406 209 387 Q246 368 260 329 L325 140 Z M163 277 Q177 282 183 295 Q189 308 185 322 Q180 336 167.5 342.5 Q155 349 141 345 Q127 340 121 327 Q115 314 119 300 Q124 286 136.5 279.5 Q149 273 163 277 Z " />
<glyph glyph-name="brush" unicode="&#xe79a;" horiz-adv-x="581" d="M109 160 Q128 177 151.5 174.5 Q175 172 195 152 Q216 132 219 108.5 Q222 85 204 67 Q161 25 90 16 Q48 10 50 23 Q50 25 53 28 Q79 58 85 100.5 Q91 143 109 160 Z M529 483 Q542 470 455 359 Q368 248 309 190 Q290 171 247 138 Q243 135 239 142 Q230 159 215 174 Q199 190 182 198 Q174 201 178 206 Q210 248 230 267 Q289 325 402 410.5 Q515 496 529 483 Z " />
<glyph glyph-name="magnet" unicode="&#xe7a1;" horiz-adv-x="510" d="M309 53 L317 135 L447 125 L439 42 Q437 28 423 30 L323 38 Q309 38 309 53 Z M64 125 L193 135 L201 53 Q202 47 198 42.5 Q194 38 187 38 L88 30 Q82 29 77 33 Q72 37 72 42 L64 125 Z M51 260 Q50 266 50 277 Q50 357 110 413.5 Q170 470 255 470 Q340 470 400 413.5 Q460 357 460 277 Q460 266 459 260 L451 175 L322 186 L330 271 L330 277 Q330 306 308 326.5 Q286 347 255 347 Q224 347 202 326.5 Q180 306 180 277 L180 271 L188 186 L59 175 L51 260 Z " />
<glyph glyph-name="archive" unicode="&#xe800;" horiz-adv-x="590" d="M469 375 L469 350 L121 350 L121 375 Q121 386 127.5 392.5 Q134 399 140 400 L146 400 L444 400 Q447 400 451 399.5 Q455 399 462 392.5 Q469 386 469 375 Z M395 450 Q398 450 402 449.5 Q406 449 413 442.5 Q420 436 420 425 L171 425 Q171 436 177.5 442.5 Q184 449 190 450 L196 450 L395 450 Z M519 350 Q536 334 538 327 Q541 318 538 300 L500 75 Q498 64 490 57.5 Q482 51 476 50 L469 50 L121 50 Q95 50 91 75 Q88 88 71.5 186.5 Q55 285 52 300 Q47 311 50.5 322 Q54 333 55.5 335 Q57 337 66 345 Q69 348 71 350 L86 365 L86 325 L504 325 L504 365 L519 350 Z M395 215 L395 265 L360 265 L360 225 L230 225 L230 265 L196 265 L196 215 Q196 190 220 190 L370 190 Q381 190 387.5 196 Q394 202 394 208 L395 215 Z " />
<glyph glyph-name="space" unicode="&#xf020;" horiz-adv-x="500" d="" />
<glyph glyph-name="sweden" unicode="&#xf601;" horiz-adv-x="550" d="M475 400 Q485 400 492.5 392.5 Q500 385 500 375 L500 275 L250 275 L250 400 L475 400 Z M50 125 L50 225 L200 225 L200 100 L70 100 Q50 100 50 125 Z M250 100 L250 225 L500 225 L500 125 Q500 114 493 107 Q486 100 475 100 L250 100 Z M50 375 Q50 400 70 400 L200 400 L200 275 L50 275 L50 375 Z " />
<glyph glyph-name="picture" unicode="&#x1f304;" horiz-adv-x="600" d="M478 334 L428 334 L366 409 L259 334 L169 334 Q143 334 124 314.5 Q105 295 105 269 L105 189 L51 337 Q46 356 62 363 L402 487 Q420 492 427 475 L478 334 Z M531 289 Q539 289 544.5 283 Q550 277 550 269 L550 33 Q550 25 544.5 19 Q539 13 531 13 L169 13 Q161 13 155.5 19 Q150 25 150 33 L150 269 Q150 277 155.5 283 Q161 289 169 289 L531 289 Z M503 63 L503 144 L467 224 L384 194 L319 128 L250 213 L204 106 L204 63 L503 63 Z " />
<glyph glyph-name="globe" unicode="&#x1f30e;" horiz-adv-x="580" d="M290 490 Q390 490 460 419.5 Q530 349 530 250 Q530 150 460 80 Q390 10 290 10 Q191 10 120.5 80 Q50 150 50 250 Q50 349 120.5 419.5 Q191 490 290 490 Z M495 250 Q495 316 456 369.5 Q417 423 355 444 Q346 432 347 428 Q349 409 356 402.5 Q363 396 371 399 Q379 402 387 405 Q395 408 397 406 Q408 394 397 382.5 Q386 371 374.5 354.5 Q363 338 374 316 Q391 284 422 284 Q436 283 443.5 266 Q451 249 452 233 Q457 193 445 163 Q434 141 452 125 Q495 181 495 250 Z M262 452 Q206 445 162.5 410 Q119 375 99 323 Q102 323 110 322 Q118 321 124 320.5 Q130 320 137 318.5 Q144 317 149 314.5 Q154 312 155 308 Q157 302 148 285.5 Q139 269 139 255 Q139 240 158 227 Q177 214 177 204 Q177 190 181 170 Q185 150 185 148 Q185 142 203 121 Q221 100 229 100 Q234 100 234.5 111 Q235 122 233.5 138 Q232 154 232 158 Q232 174 239 195 Q245 216 268.5 230 Q292 244 296 253 Q304 270 300.5 283.5 Q297 297 292 305 Q287 313 275 319 Q263 325 254.5 327.5 Q246 330 236 332 Q226 334 225 334 Q217 337 204 337.5 Q191 338 186 336 Q181 334 172.5 341.5 Q164 349 164 356 Q164 361 171.5 369.5 Q179 378 189 388 Q199 398 203 403 Q207 410 211.5 413.5 Q216 417 222.5 421.5 Q229 426 236 432 Q238 434 248.5 440.5 Q259 447 262 452 Z M226 55 Q259 45 290 45 Q354 45 403 79 Q390 101 344 96 Q332 95 311.5 87.5 Q291 80 288 79 Q251 71 250 71 Q244 70 237 64 Q230 58 226 55 Z " />
<glyph glyph-name="leaf" unicode="&#x1f342;" horiz-adv-x="570" d="M168 398 Q259 451 421 431 Q505 420 519 406 Q521 403 518 401 Q480 381 453 346.5 Q426 312 414 280.5 Q402 249 381.5 214.5 Q361 180 335 162 Q266 114 144 160 Q111 122 87 72 Q81 60 63.5 68.5 Q46 77 51 88 Q73 138 115.5 184.5 Q158 231 203.5 261 Q249 291 291.5 314 Q334 337 362 348 L389 358 Q382 358 368.5 357.5 Q355 357 316.5 350.5 Q278 344 242.5 331.5 Q207 319 161.5 289.5 Q116 260 81 219 Q70 340 168 398 Z " />
<glyph glyph-name="graduation-cap" unicode="&#x1f393;" horiz-adv-x="600" d="M133 194 L300 110 L438 178 Q436 167 434 154.5 Q432 142 431 137 Q430 132 425.5 125.5 Q421 119 413.5 114 Q406 109 391 103 Q371 94 351 82.5 Q331 71 319.5 65.5 Q308 60 300 60 Q292 60 280 66.5 Q268 73 248 85 Q228 97 208 105 Q172 121 156.5 139.5 Q141 158 133 194 Z M538 317 Q550 310 550 300.5 Q550 291 538 284 L499 262 L345 313 Q334 331 300 331 Q280 331 266.5 323 Q253 315 253 303 Q253 291 266.5 283 Q280 275 300 275 Q313 275 318 277 L464 243 L330 167 Q300 151 270 167 L62 284 Q50 291 50 300.5 Q50 310 62 317 L270 434 Q300 450 330 434 L538 317 Z M474 96 Q483 154 480.5 187 Q478 220 471 232 L464 243 L499 262 Q502 258 505 248 Q508 238 513.5 197.5 Q519 157 510 99 Q508 86 499 84 Q490 82 481.5 86.5 Q473 91 474 96 Z " />
<glyph glyph-name="language" unicode="&#x1f394;" horiz-adv-x="601" d="M544 228 Q559 187 539 140 Q519 93 472 60 Q467 60 466 61 Q465 62 458 70.5 Q451 79 450 80 Q449 83 451 85 Q494 115 509.5 161 Q525 207 504 235 Q496 216 484.5 197 Q473 178 455 157 Q437 136 412 124.5 Q387 113 359 117 Q333 120 317 137.5 Q301 155 301 184 Q301 226 331 258 Q356 283 388 291 L387 341 Q317 329 314 329 Q311 328 309 331 Q309 332 306.5 345.5 Q304 359 304 361 Q303 362 304.5 363 Q306 364 308 364 L386 378 Q386 433 385 435 Q385 439 389 439 Q412 439 415 440 Q420 440 420 436 L420 384 Q499 395 502 395 Q506 397 507 392 Q507 391 509 380.5 Q511 370 511 368 Q513 363 509 362 L421 347 L421 296 L427 296 Q470 296 501 278 Q532 260 544 228 Z M359 148 Q373 145 390 151 L388 258 Q371 252 358 238 Q336 216 336 184 Q336 151 359 148 Z M420 162 Q434 174 449 196 Q464 218 471.5 235.5 Q479 253 475 256 Q457 265 427 265 Q426 265 424 264.5 Q422 264 421 264 L420 162 Z M196 353 Q201 339 222.5 270.5 Q244 202 264 140 Q284 78 284 77 Q284 75 282 75 L239 75 Q236 75 236 77 L211 160 L123 160 Q99 78 98 77 Q98 75 95 75 L52 75 Q50 75 50 77 Q55 86 138 353 Q139 357 143 357 L191 357 Q196 357 196 353 Z M131 195 L203 195 L167 327 L131 195 Z " />
<glyph glyph-name="mic" unicode="&#x1f3a4;" horiz-adv-x="420" d="M360 319 Q370 319 370 309 L370 240 Q370 194 335.5 158 Q301 122 235 116 L235 50 L300 50 Q310 50 310 40 L310 10 Q310 0 300 0 L120 0 Q110 0 110 10 L110 40 Q110 50 120 50 L185 50 L185 116 Q119 122 84.5 158 Q50 194 50 240 L50 309 Q50 319 60 319 L75 319 Q85 319 85 309 L85 240 Q85 207 114.5 178.5 Q144 150 210 150 Q276 150 305.5 178.5 Q335 207 335 240 L335 309 Q335 319 345 319 L360 319 Z M267.5 212.5 Q250 200 210 200 Q170 200 152.5 212.5 Q135 225 135 240 L135 319 L285 319 L285 240 Q285 225 267.5 212.5 Z M285 460 L285 354 L135 354 L135 460 Q135 475 152.5 487.5 Q170 500 210 500 Q250 500 267.5 487.5 Q285 475 285 460 Z " />
<glyph glyph-name="palette" unicode="&#x1f3a8;" horiz-adv-x="591" d="M479 386 Q515 362 529.5 331 Q544 300 539.5 279 Q535 258 522 255 Q514 253 495 260 Q476 267 455 265 Q434 263 415 242 Q400 219 404.5 204.5 Q409 190 421.5 172 Q434 154 433 147 Q432 134 415 115.5 Q398 97 352 78.5 Q306 60 244 60 Q151 60 98.5 110.5 Q46 161 51 233 Q55 292 103 350.5 Q151 409 211 426 Q356 468 479 386 Z M320 153 Q335 153 346 164 Q357 175 357 191 Q357 207 346 217.5 Q335 228 320 228 Q304 228 293 217.5 Q282 207 282 191 Q282 175 293 164 Q304 153 320 153 Z " />
<glyph glyph-name="ticket" unicode="&#x1f3ab;" horiz-adv-x="571" d="M158 211 L321 374 L410 285 L247 122 L158 211 Z M513 333 Q520 326 520 315 Q520 304 513 297 L238 22 Q230 14 220 14 Q210 14 202 22 L164 60 Q170 70 170 84 Q170 105 155.5 120 Q141 135 120 135 Q109 135 95 128 L58 166 Q50 174 50 184 Q50 194 58 202 L333 477 Q340 484 351 484 Q362 484 369 477 L406 439 Q400 428 400 415 Q400 394 415 379.5 Q430 365 451 365 Q464 365 475 371 L513 333 Z M247 82 L450 285 L321 414 L117 211 L247 82 Z " />
<glyph glyph-name="video" unicode="&#x1f3ac;" horiz-adv-x="590" d="M540 375 L490 375 L490 325 L540 325 L540 275 L490 275 L490 225 L540 225 L540 175 L490 175 L490 125 L540 125 L540 95 Q540 87 534 81 Q528 75 520 75 L70 75 Q62 75 56 81 Q50 87 50 95 L50 125 L100 125 L100 175 L50 175 L50 225 L100 225 L100 275 L50 275 L50 325 L100 325 L100 375 L50 375 L50 405 Q50 414 56 419.5 Q62 425 70 425 L520 425 Q528 425 534 419.5 Q540 414 540 405 L540 375 Z M240 175 L365 250 L240 325 L240 175 Z " />
<glyph glyph-name="hair-cross" unicode="&#x1f3af;" horiz-adv-x="530" d="M113 402 Q176 465 265 465 Q354 465 417 402 Q480 339 480 250 Q480 161 417 98 Q354 35 265 35 Q176 35 113 98 Q50 161 50 250 Q50 339 113 402 Z M283 76 Q345 83 389 127 Q433 171 439 233 L343 233 L343 268 L439 268 Q433 330 389 374 Q345 418 283 425 L283 328 L248 328 L248 425 Q186 418 141.5 374 Q97 330 91 268 L188 268 L188 233 L91 233 Q97 171 141.5 127 Q186 83 248 76 L248 173 L283 173 L283 76 Z " />
<glyph glyph-name="music" unicode="&#x1f3b5;" horiz-adv-x="450" d="M350 475 Q371 475 385.5 460.5 Q400 446 400 425 L400 75 Q400 55 385.5 40 Q371 25 350 25 L100 25 Q80 25 65 40 Q50 55 50 75 L50 425 Q50 446 65 460.5 Q80 475 100 475 L350 475 Z M295 237 Q311 259 306.5 283 Q302 307 290 323 Q278 339 265.5 356 Q253 373 253 383 L223 383 L223 199 Q202 207 178 198 Q157 191 146 174 Q135 157 140 142 Q146 126 166.5 119.5 Q187 113 209 120 Q253 135 253 169 L253 300 Q271 297 280.5 284 Q290 271 289.5 258 Q289 245 288 237 Q286 232 289 232 Q291 232 295 237 Z " />
<glyph glyph-name="trophy" unicode="&#x1f3c6;" horiz-adv-x="550" d="M305 142 L305 109 Q340 105 363 93 Q386 81 386 65 Q386 47 353.5 33.5 Q321 20 275 20 Q230 20 197 33.5 Q164 47 164 65 Q164 81 187 93 Q210 105 246 109 L246 142 Q246 167 229.5 184 Q213 201 173 228 Q145 246 129.5 258.5 Q114 271 92 294.5 Q70 318 60 348.5 Q50 379 50 417 Q50 424 55.5 429 Q61 434 68 434 L154 434 Q178 480 275 480 Q373 480 397 434 L482 434 Q489 434 494.5 429 Q500 424 500 417 Q500 379 490 348.5 Q480 318 458 294.5 Q436 271 420.5 258.5 Q405 246 377 228 Q338 202 321.5 184.5 Q305 167 305 142 Z M374 268 Q414 296 437 325 Q460 354 464 399 L401 399 Q398 320 374 268 Z M329 442.5 Q306 450 275 450 Q244 450 221 442.5 Q198 435 189 426.5 Q180 418 180 412 Q180 405 189 396.5 Q198 388 221 380.5 Q244 373 275 373 Q306 373 329 380.5 Q352 388 361 396.5 Q370 405 370 412 Q370 418 361 426.5 Q352 435 329 442.5 Z M86 399 Q90 354 113 325 Q136 296 176 268 Q152 320 149 399 L86 399 Z " />
<glyph glyph-name="thumbs-up" unicode="&#x1f44d;" horiz-adv-x="500" d="M341 315 Q342 312 370 308.5 Q398 305 424 296.5 Q450 288 450 273 Q450 237 419.5 131 Q389 25 366 25 Q294 25 222 46 Q150 67 150 90 L150 261 Q150 268 157.5 278 Q165 288 180.5 300.5 Q196 313 207 321 Q218 329 238 342.5 Q258 356 261 358 Q286 375 313 408 Q340 441 355.5 460 Q371 479 376 473 Q400 435 390.5 404.5 Q381 374 361 345 Q341 316 341 315 Z M125 313 Q132 313 125 306 Q100 281 100 254 L100 95 Q100 70 126 43 Q131 38 125 38 Q112 38 97.5 42 Q83 46 66.5 64.5 Q50 83 50 114 L50 235 Q50 266 66.5 285 Q83 304 98 308.5 Q113 313 125 313 Z " />
<glyph glyph-name="thumbs-down" unicode="&#x1f44e;" horiz-adv-x="500" d="M159 184 Q158 187 130.5 190.5 Q103 194 76.5 202.5 Q50 211 50 226 Q50 262 81 368.5 Q112 475 134 475 Q206 475 278 453.5 Q350 432 350 409 L350 238 Q350 233 346 226 Q342 219 333.5 211 Q325 203 317.5 196.5 Q310 190 296.5 180.5 Q283 171 276 166 Q269 161 255.5 152 Q242 143 239 141 Q214 124 187 91 Q160 58 144.5 39 Q129 20 124 26 Q100 64 109.5 94.5 Q119 125 139 154 Q159 183 159 184 Z M375 186 Q369 186 376 193 Q400 218 400 245 L400 404 Q400 429 374 456 Q369 461 375 461 Q388 461 402.5 457 Q417 453 433.5 434.5 Q450 416 450 385 L450 264 Q450 240 441 223.5 Q432 207 418.5 199.5 Q405 192 394.5 189 Q384 186 375 186 Z " />
<glyph glyph-name="bag" unicode="&#x1f45c;" horiz-adv-x="531" d="M468 409 Q482 396 480 379 L431 55 Q427 40 412 40 L119 40 Q105 40 99 55 Q52 365 51 379 Q49 396 62 409 Q65 412 89 430.5 Q113 449 117 452 Q126 460 145 460 L385 460 Q404 460 413 452 Q452 423 468 409 Z M265 191 Q293 191 314 208 Q335 225 345.5 252.5 Q356 280 360.5 297 Q365 314 367 330 L321 330 Q302 236 265 236 Q228 236 209 330 L163 330 Q186 191 265 191 Z M89 375 L441 375 L386 433 L144 433 L89 375 Z " />
<glyph glyph-name="user" unicode="&#x1f464;" horiz-adv-x="570" d="M418 139 Q520 103 520 78 L520 25 L285 25 L50 25 L50 78 Q50 103 152 139 Q199 156 216 173.5 Q233 191 233 221 Q233 232 222 245.5 Q211 259 206 282 Q205 288 201.5 291 Q198 294 194.5 295 Q191 296 187.5 303.5 Q184 311 183 325 Q183 333 185.5 338 Q188 343 190 344 L192 346 Q188 371 186 390 Q184 417 206.5 446 Q229 475 285 475 Q341 475 364 446 Q387 417 384 390 L378 346 Q387 342 387 325 Q386 311 382.5 303.5 Q379 296 375.5 295 Q372 294 368.5 291 Q365 288 364 282 Q360 258 348.5 245 Q337 232 337 221 Q337 191 354.5 173.5 Q372 156 418 139 Z " />
<glyph glyph-name="users" unicode="&#x1f465;" horiz-adv-x="600" d="M550 30 L438 30 L438 105 Q438 132 423 145.5 Q408 159 346 190 Q366 205 366 232 Q366 240 359.5 248.5 Q353 257 350 274 Q349 278 343 282 Q337 286 336 303 Q336 315 342 318 Q339 335 338 348 Q336 367 349.5 387 Q363 407 397 407 Q431 407 445 387 Q459 367 457 348 L453 318 Q459 315 459 303 Q458 286 452 282 Q446 278 445 274 Q442 257 435.5 248.5 Q429 240 429 232 Q429 211 439.5 199 Q450 187 478 175 Q534 152 543 135 Q546 131 547.5 104.5 Q549 78 550 54 L550 30 Z M306 161 Q397 122 397 99 L397 30 L50 30 L50 122 Q50 144 92 161 Q130 177 144 193 Q158 209 158 237 Q158 247 148.5 259 Q139 271 136 293 Q135 298 127 304 Q119 310 117 332 Q117 339 118.5 343.5 Q120 348 122 350 L124 351 Q121 374 119 392 Q117 417 135.5 443.5 Q154 470 199 470 Q244 470 262.5 443.5 Q281 417 279 392 L274 351 Q281 347 281 332 Q279 310 271 304 Q263 298 262 293 Q259 271 249.5 259 Q240 247 240 237 Q240 209 254 193 Q268 177 306 161 Z " />
<glyph glyph-name="light-bulb" unicode="&#x1f4a1;" horiz-adv-x="451" d="M155 20 L155 72 L296 72 L296 20 Q261 -1 225 0 Q190 -1 155 20 Z M293 102 L158 102 Q158 138 140 172 Q122 206 101 228.5 Q80 251 64 284.5 Q48 318 51 354 Q55 414 98 457 Q141 500 225 500 Q310 500 352.5 457 Q395 414 400 354 Q402 324 392 297.5 Q382 271 366 249.5 Q350 228 333.5 207 Q317 186 305 159 Q293 132 293 102 Z M104 350 Q102 348 104 340 Q106 332 105 330 Q104 328 107.5 320.5 Q111 313 110.5 311.5 Q110 310 114.5 302.5 Q119 295 120 293 Q121 291 126.5 283.5 Q132 276 133.5 274 Q135 272 141 263.5 Q147 255 149 252 Q193 191 205 146 L246 146 Q258 193 302 252 Q304 255 314.5 269.5 Q325 284 327 287.5 Q329 291 335.5 302 Q342 313 343.5 318.5 Q345 324 346.5 332.5 Q348 341 347 350 Q339 448 225 448 Q112 448 104 350 Z " />
<glyph glyph-name="new" unicode="&#x1f4a5;" horiz-adv-x="552" d="M493 192 Q503 184 501 175.5 Q499 167 487 164 L448 153 Q436 150 428 139 Q420 128 421 115 L423 74 Q424 62 416 57 Q408 52 397 57 L354 79 Q343 85 330.5 81 Q318 77 313 66 L290 22 Q284 11 275.5 10.5 Q267 10 259 20 L234 59 Q217 83 190 69 L129 34 Q118 27 113 31 Q108 35 112 47 L139 129 Q143 141 137 151 Q131 161 119 162 L66 168 Q54 170 51.5 177 Q49 184 59 192 L102 230 Q112 238 112 250.5 Q112 263 102 271 L59 309 Q49 317 51 325.5 Q53 334 65 337 L104 348 Q116 351 124.5 362 Q133 373 132 386 L129 427 Q129 440 136.5 445 Q144 450 155 445 L195 426 Q207 421 219.5 425 Q232 429 238 440 L261 480 Q267 491 276 490.5 Q285 490 291 479 L316 436 Q322 425 333.5 421.5 Q345 418 356 425 L424 467 Q435 474 439 470 Q443 466 439 454 L409 369 Q404 358 410 348.5 Q416 339 429 338 L486 332 Q499 331 501 324 Q503 317 493 309 L450 271 Q441 263 441 250.5 Q441 238 450 230 L493 192 Z M301 146 L301 198 L251 198 L251 146 L301 146 Z M301 226 L301 356 L251 356 L251 226 L301 226 Z " />
<glyph glyph-name="water" unicode="&#x1f4a6;" horiz-adv-x="570" d="M134 497 Q139 454 159 419.5 Q179 385 195.5 358 Q212 331 212 302 Q212 269 188 245.5 Q164 222 131 222 Q98 222 74 245.5 Q50 269 50 302 Q50 331 66.5 358 Q83 385 103 419.5 Q123 454 128 497 Q129 499 131.5 499 Q134 499 134 497 Z M442 497 Q447 454 467 419.5 Q487 385 503.5 358 Q520 331 520 302 Q520 269 496 245.5 Q472 222 439 222 Q406 222 382 245.5 Q358 269 358 302 Q358 326 368.5 348.5 Q379 371 392.5 387.5 Q406 404 419 433.5 Q432 463 436 497 Q437 499 439.5 499 Q442 499 442 497 Z M282 275 Q283 277 285.5 277 Q288 277 288 275 Q293 232 313 197.5 Q333 163 349.5 136 Q366 109 366 80 Q366 47 342 23.5 Q318 0 285 0 Q252 0 228 23.5 Q204 47 204 80 Q204 109 220.5 136 Q237 163 257 197.5 Q277 232 282 275 Z " />
<glyph glyph-name="droplet" unicode="&#x1f4a7;" horiz-adv-x="380" d="M195 486 Q202 427 225 376.5 Q248 326 271 297 Q294 268 312 229 Q330 190 330 149 Q330 92 288.5 51 Q247 10 190 10 Q133 10 91.5 51 Q50 92 50 149 Q50 190 68 229 Q86 268 109 297 Q132 326 155 376.5 Q178 427 185 486 Q186 490 190.5 490 Q195 490 195 486 Z M174 290 Q175 292 173 297 Q170 300 166 300 Q162 300 160 297 L140 268 Q124 245 116 233 Q108 221 99 195.5 Q90 170 90 145 Q90 133 98.5 124.5 Q107 116 119 116 Q148 116 148 150 Q148 197 169 273 Q170 276 171.5 281.5 Q173 287 174 290 Z " />
<glyph glyph-name="air" unicode="&#x1f4a8;" horiz-adv-x="552" d="M92 342 Q84 335 74 336 Q64 337 57 345 Q50 352 51 363 Q52 374 60 381 Q84 401 99.5 411 Q115 421 144 431 Q173 441 208.5 433 Q244 425 288 400 Q332 375 365.5 373.5 Q399 372 415.5 381.5 Q432 391 460 415 Q479 430 495 412 Q511 392 492 376 Q431 321 375 321 Q325 321 264 356 Q230 375 204.5 382 Q179 389 158 382 Q137 375 125.5 367.5 Q114 360 92 342 Z M460 287 Q479 303 495 284 Q511 264 492 248 Q472 231 459.5 221.5 Q447 212 423.5 202.5 Q400 193 375 193 Q327 193 264 228 Q230 247 204.5 254 Q179 261 158 254 Q137 247 125.5 239.5 Q114 232 92 214 Q85 207 74.5 208 Q64 209 57 217 Q41 237 60 253 Q79 270 90 278 Q101 286 124.5 297 Q148 308 168.5 308.5 Q189 309 221 301 Q253 293 288 273 Q322 254 347.5 247 Q373 240 394 247 Q415 254 426.5 261.5 Q438 269 460 287 Z M460 159 Q479 175 495 156 Q502 149 501 138 Q500 127 492 120 Q472 103 459.5 93.5 Q447 84 423.5 74.5 Q400 65 375 65 Q327 65 264 100 Q230 119 204.5 126 Q179 133 158 126.5 Q137 120 125 112 Q113 104 92 86 Q85 79 74.5 80 Q64 81 57 89 Q41 109 60 125 Q79 142 90 150 Q101 158 124.5 169 Q148 180 168.5 180.5 Q189 181 221 173 Q253 165 288 145 Q322 126 347.5 119 Q373 112 394 119 Q415 126 426.5 133.5 Q438 141 460 159 Z " />
<glyph glyph-name="credit-card" unicode="&#x1f4b3;" horiz-adv-x="600" d="M500 425 Q521 425 535.5 410 Q550 395 550 375 L550 125 Q550 104 535.5 89.5 Q521 75 500 75 L100 75 Q80 75 65 89.5 Q50 104 50 125 L50 375 Q50 395 65 410 Q80 425 100 425 L500 425 Z M500 125 L500 275 L100 275 L100 125 L500 125 Z M500 350 L500 375 L100 375 L100 350 L500 350 Z M150 222 L165 222 L165 207 L150 207 L150 222 Z M240 192 L255 192 L255 207 L270 207 L270 222 L300 222 L300 207 L285 207 L285 192 L270 192 L270 177 L240 177 L240 192 Z M300 177 L285 177 L285 192 L300 192 L300 177 Z M225 177 L195 177 L195 192 L225 192 L225 177 Z M240 207 L240 192 L225 192 L225 222 L255 222 L255 207 L240 207 Z M180 192 L180 177 L150 177 L150 192 L165 192 L165 207 L180 207 L180 222 L210 222 L210 207 L195 207 L195 192 L180 192 Z " />
<glyph glyph-name="monitor" unicode="&#x1f4bb;" horiz-adv-x="600" d="M500 470 Q521 470 535.5 455 Q550 440 550 420 L550 145 Q550 124 535.5 106.5 Q521 89 501 85 L392 63 Q392 63 435 44 Q460 30 425 30 L175 30 Q126 30 191 56 Q209 63 209 63 L99 85 Q79 89 64.5 106.5 Q50 124 50 145 L50 420 Q50 440 65 455 Q80 470 100 470 L500 470 Z M500 147 L500 425 L100 425 L100 147 L500 147 Z " />
<glyph glyph-name="briefcase" unicode="&#x1f4bc;" horiz-adv-x="600" d="M278 238 L278 188 L50 188 Q54 301 55 334 Q57 388 105 388 L185 388 Q193 401 203.5 421.5 Q214 442 215 444 Q222 457 226.5 460 Q231 463 245 463 L356 463 Q369 463 374 459.5 Q379 456 385 444 Q394 428 415 388 L495 388 Q543 388 545 334 L550 188 L323 188 L323 238 L278 238 Z M241 415 L227 388 L373 388 L359 415 Q352 428 338 428 L262 428 Q248 428 241 415 Z M323 113 L323 163 L538 163 Q535 119 533 80 Q530 38 488 38 L113 38 Q68 38 68 80 L63 163 L278 163 L278 113 L323 113 Z " />
<glyph glyph-name="save" unicode="&#x1f4be;" horiz-adv-x="500" d="M379 450 L450 372 L450 100 Q450 80 435.5 65 Q421 50 400 50 L100 50 Q80 50 65 65 Q50 80 50 100 L50 400 Q50 421 65 435.5 Q80 450 100 450 L379 450 Z M350 300 L350 425 L150 425 L150 300 Q150 290 157.5 282.5 Q165 275 175 275 L325 275 Q335 275 342.5 282.5 Q350 290 350 300 Z M325 400 L325 300 L275 300 L275 400 L325 400 Z " />
<glyph glyph-name="cd" unicode="&#x1f4bf;" horiz-adv-x="560" d="M117.5 412.5 Q185 480 280 480 Q375 480 442.5 412.5 Q510 345 510 250 Q510 155 442.5 87.5 Q375 20 280 20 Q185 20 117.5 87.5 Q50 155 50 250 Q50 345 117.5 412.5 Z M227 197 Q249 175 280 175 Q311 175 333 197 Q355 219 355 250 Q355 282 333.5 303.5 Q312 325 280 325 Q249 325 227 303 Q205 281 205 250 Q205 219 227 197 Z " />
<glyph glyph-name="folder" unicode="&#x1f4c1;" horiz-adv-x="602" d="M528 325 Q544 325 548 319 Q552 313 551 301 L530 75 Q529 63 524 56.5 Q519 50 503 50 L100 50 Q74 50 72 75 L51 301 Q50 313 54 319 Q58 325 74 325 L528 325 Z M511 380 L516 360 L93 360 L100 426 Q102 436 110 443 Q118 450 128 450 L210 450 Q236 450 253 433 L268 418 Q284 400 311 400 L481 400 Q491 400 500 394 Q509 388 511 380 Z " />
<glyph glyph-name="text-doc" unicode="&#x1f4c4;" horiz-adv-x="450" d="M156 229 L156 274 L296 274 L296 229 L156 229 Z M350 475 Q371 475 385.5 460.5 Q400 446 400 425 L400 75 Q400 55 385.5 40 Q371 25 350 25 L100 25 Q80 25 65 40 Q50 55 50 75 L50 425 Q50 446 65 460.5 Q80 475 100 475 L350 475 Z M350 75 L350 425 L100 425 L100 75 L350 75 Z M295 371 L295 327 L155 327 L155 371 L295 371 Z M295 175 L295 131 L155 131 L155 175 L295 175 Z " />
<glyph glyph-name="calendar" unicode="&#x1f4c5;" horiz-adv-x="550" d="M450 425 Q471 425 485.5 410.5 Q500 396 500 375 L500 75 Q500 55 485.5 40 Q471 25 450 25 L100 25 Q80 25 65 40 Q50 55 50 75 L50 375 Q50 396 65 410.5 Q80 425 100 425 L123 425 L123 375 L203 375 L203 425 L348 425 L348 375 L428 375 L428 425 L450 425 Z M450 75 L450 275 L100 275 L100 75 L450 75 Z M180 475 L180 390 L145 390 L145 475 L180 475 Z M405 475 L405 390 L370 390 L370 475 L405 475 Z " />
<glyph glyph-name="line-graph" unicode="&#x1f4c8;" horiz-adv-x="601" d="M67 217 Q46 222 51 245 Q56 266 78 261 L127 249 L101 209 L67 217 Z M512 211 Q519 217 528.5 216.5 Q538 216 544 209 Q560 193 543 177 L417 64 Q411 58 402 58 Q395 58 388 63 L245 173 L218 180 L243 220 L261 216 Q267 214 269 212 L401 110 L512 211 Z M267 321 L92 46 Q86 35 73 35 Q67 35 61 39 Q53 44 51 53.5 Q49 63 54 70 L241 364 Q245 372 255 374 Q264 377 273 371 L396 293 L509 456 Q514 464 523 465.5 Q532 467 540 461 Q559 449 546 430 L420 249 Q408 231 389 243 L267 321 Z " />
<glyph glyph-name="bar-graph" unicode="&#x1f4ca;" horiz-adv-x="500" d="M425 475 Q436 475 443 467.5 Q450 460 450 450 L450 25 L350 25 L350 450 Q350 475 370 475 L425 475 Z M275 325 Q286 325 293 317.5 Q300 310 300 300 L300 25 L200 25 L200 300 Q200 325 220 325 L275 325 Z M125 175 Q136 175 143 167.5 Q150 160 150 150 L150 25 L50 25 L50 150 Q50 175 70 175 L125 175 Z " />
<glyph glyph-name="clipboard" unicode="&#x1f4cb;" horiz-adv-x="450" d="M365 450 Q379 450 389.5 439.5 Q400 429 400 415 L400 35 Q400 20 389.5 10 Q379 0 365 0 L85 0 Q71 0 60.5 10 Q50 20 50 35 L50 415 Q50 429 60.5 439.5 Q71 450 85 450 L115 375 L335 375 L365 450 Z M315 400 L135 400 L113 450 L167 450 L185 500 L265 500 L283 450 L338 450 L315 400 Z " />
<glyph glyph-name="attach" unicode="&#x1f4ce;" horiz-adv-x="569" d="M172 5 Q121 5 87 41 Q51 76 50 124 Q49 172 92 219 L340 467 Q380 507 427 494 Q449 488 466.5 470.5 Q484 453 490 431 Q503 383 463 343 L226 106 Q206 86 182 83 Q158 81 142 97 Q127 109 128.5 134 Q130 159 152 180 L318 347 Q330 360 343 347 Q356 334 343 322 L177 156 Q155 134 167 121 Q173 117 179 118 Q191 120 202 131 L439 368 Q464 393 456 422 Q448 452 418 460 Q391 467 364 442 L117 195 Q84 157 85 123.5 Q86 90 111 65 Q136 41 169.5 40 Q203 39 240 71 L488 318 Q500 330 513 318 Q526 307 513 294 L265 46 Q224 5 172 5 Z " />
<glyph glyph-name="bookmarks" unicode="&#x1f4d1;" horiz-adv-x="375" d="M300 500 Q310 500 317.5 492.5 Q325 485 325 475 L325 50 L250 140 L250 450 Q250 460 242.5 467.5 Q235 475 225 475 L175 475 Q175 500 195 500 L300 500 Z M175 425 Q185 425 192.5 417.5 Q200 410 200 400 L200 0 L125 90 L50 0 L50 400 Q50 425 70 425 L175 425 Z " />
<glyph glyph-name="book" unicode="&#x1f4d5;" horiz-adv-x="450" d="M391 372 Q400 368 400 358 L400 77 Q400 70 394 64.5 Q388 59 380 59 Q357 59 357 77 L357 338 Q357 344 351 347 L149 455 Q133 460 115 450 Q93 440 87 428 L291 314 Q300 310 300 300 L300 25 Q300 14 291 11 Q288 9 283 9 Q276 9 273 11 Q269 14 172 74.5 Q75 135 66 140 Q53 149 53 157 L50 419 Q50 433 57 445 Q71 468 108 483.5 Q145 499 166 488 L391 372 Z " />
<glyph glyph-name="open-book" unicode="&#x1f4d6;" horiz-adv-x="550" d="M220 194 L220 160 L120 200 L120 234 L220 194 Z M220 298 L220 264 L120 304 L120 338 L220 298 Z M489 471 Q500 465 500 450 L500 130 Q500 113 484 107 L285 27 Q281 26 280 26 Q279 26 277.5 25.5 Q276 25 275 25 Q274 25 272.5 25.5 Q271 26 270 26 L265 27 L66 107 Q50 113 50 130 L50 450 Q50 465 61 471 Q72 479 84 474 L275 397 L466 474 Q478 479 489 471 Z M250 77 L250 357 L90 421 L90 141 L250 77 Z M460 141 L460 421 L300 357 L300 77 L460 141 Z M430 234 L430 200 L330 160 L330 194 L430 234 Z M430 338 L430 304 L330 264 L330 298 L430 338 Z " />
<glyph glyph-name="phone" unicode="&#x1f4de;" horiz-adv-x="500" d="M281 220 Q362 301 340 323 Q339 324 336 327 Q321 342 315.5 351 Q310 360 313.5 378 Q317 396 338 422 Q348 434 356.5 441.5 Q365 449 374 449.5 Q383 450 389 450 Q395 450 403.5 443.5 Q412 437 415.5 434.5 Q419 432 428.5 422 Q438 412 439 411 Q463 387 436 314 Q409 241 334 167 Q259 92 186.5 64.5 Q114 37 90 61 Q89 62 78.5 72 Q68 82 66 84.5 Q64 87 57 96.5 Q50 106 50.5 112 Q51 118 51.5 127 Q52 136 59 144.5 Q66 153 78 163 Q99 180 113 186.5 Q127 193 140 187.5 Q153 182 157.5 178.5 Q162 175 177 160 Q199 138 281 220 Z " />
<glyph glyph-name="megaphone" unicode="&#x1f4e3;" horiz-adv-x="531" d="M446 325 Q475 256 479.5 196 Q484 136 460 126 Q446 120 429.5 127.5 Q413 135 397 147.5 Q381 160 347.5 168 Q314 176 273 172 Q259 170 252 162.5 Q245 155 249 144 Q260 116 272 90 Q274 85 284 79 Q294 73 296 69 Q303 52 285 46 Q260 35 234 26 Q219 21 207 47 Q191 85 178 113 Q175 119 161 121.5 Q147 124 138 137 Q123 132 119 130 Q102 124 82 136 Q62 148 55 166 Q47 182 52.5 205.5 Q58 229 74 236 Q137 262 180.5 290 Q224 318 242.5 341.5 Q261 365 272 387.5 Q283 410 284.5 426.5 Q286 443 292 456 Q298 469 310 474 Q334 484 375 439 Q416 394 446 325 Z M414 184.5 Q428 173 432 175 Q436 177 437 194 Q438 211 431.5 243 Q425 275 411 307 Q397 340 377.5 368.5 Q358 397 344 410.5 Q330 424 326 422 Q322 420 321 401 Q320 382 326 348.5 Q332 315 346 282 Q360 249 380 222.5 Q400 196 414 184.5 Z " />
<glyph glyph-name="upload" unicode="&#x1f4e4;" horiz-adv-x="601" d="M300 463 L430 341 L348 341 L348 213 L253 213 L253 341 L170 341 L300 463 Z M534 174 Q543 169 547.5 158 Q552 147 549 138 L535 61 Q533 51 524 44.5 Q515 38 504 38 L96 38 Q85 38 76 44.5 Q67 51 65 61 L51 138 Q46 162 67 174 L146 228 L195 228 L110 163 L199 163 Q203 163 205 159 L225 104 L375 104 L395 159 Q399 163 401 163 L490 163 L405 228 L454 228 L534 174 Z " />
<glyph glyph-name="download" unicode="&#x1f4e5;" horiz-adv-x="601" d="M534 174 Q543 169 547.5 158 Q552 147 549 138 L535 61 Q533 51 524 44.5 Q515 38 504 38 L96 38 Q85 38 76 44.5 Q67 51 65 61 L51 138 Q46 162 67 174 L146 228 L195 228 L110 163 L199 163 Q203 163 205 159 L225 104 L375 104 L395 159 Q399 163 401 163 L490 163 L405 228 L454 228 L534 174 Z M430 335 L300 213 L170 335 L253 335 L253 463 L348 463 L348 335 L430 335 Z " />
<glyph glyph-name="box" unicode="&#x1f4e6;" horiz-adv-x="550" d="M485 450 Q491 450 495.5 445.5 Q500 441 500 435 L500 375 L50 375 L50 435 Q50 441 54.5 445.5 Q59 450 65 450 L485 450 Z M75 85 L75 350 L475 350 L475 85 Q475 70 464.5 60 Q454 50 440 50 L110 50 Q96 50 85.5 60 Q75 70 75 85 Z M200 300 L200 250 L350 250 L350 300 L200 300 Z " />
<glyph glyph-name="newspaper" unicode="&#x1f4f0;" horiz-adv-x="500" d="M400 475 Q421 475 435.5 460.5 Q450 446 450 425 L450 75 Q450 55 435.5 40 Q421 25 400 25 L100 25 Q80 25 65 40 Q50 55 50 75 L50 425 Q50 446 65 460.5 Q80 475 100 475 L400 475 Z M400 75 L400 425 L100 425 L100 75 L400 75 Z M275 200 L275 175 L150 175 L150 200 L275 200 Z M350 300 L350 275 L250 275 L250 300 L350 300 Z M250 325 L250 375 L350 375 L350 325 L250 325 Z M225 375 L225 275 L150 275 L150 375 L225 375 Z M200 250 L200 225 L150 225 L150 250 L200 250 Z M225 225 L225 250 L350 250 L350 225 L225 225 Z M350 150 L350 125 L150 125 L150 150 L350 150 Z M300 175 L300 200 L350 200 L350 175 L300 175 Z " />
<glyph glyph-name="mobile" unicode="&#x1f4f1;" horiz-adv-x="390" d="M290 495 Q311 495 325.5 480.5 Q340 466 340 445 L340 55 Q340 35 325.5 20 Q311 5 290 5 L100 5 Q80 5 65 20 Q50 35 50 55 L50 445 Q50 466 65 480.5 Q80 495 100 495 L290 495 Z M195 25 Q210 25 220 32.5 Q230 40 230 50 Q230 61 220 68 Q210 75 195 75 Q181 75 170.5 67.5 Q160 60 160 50 Q160 40 170.5 32.5 Q181 25 195 25 Z M300 100 L300 430 L90 430 L90 100 L300 100 Z " />
<glyph glyph-name="signal" unicode="&#x1f4f6;" horiz-adv-x="590" d="M295 150 Q316 150 330.5 135 Q345 120 345 100 Q345 79 330.5 64.5 Q316 50 295 50 Q275 50 260.5 64.5 Q246 79 246 100 Q246 120 260.5 135 Q275 150 295 150 Z M190 206 Q234 250 295 250 Q356 250 400 206 L365 170 Q336 199 295 199 Q254 199 225 170 L190 206 Z M120 276 Q193 350 295.5 350 Q398 350 470 276 L435 241 Q377 300 295.5 300 Q214 300 155 241 L120 276 Z M50 347 Q152 450 295.5 450 Q439 450 540 347 L505 312 Q418 400 295 400 Q172 400 85 312 L50 347 Z " />
<glyph glyph-name="camera" unicode="&#x1f4f7;" horiz-adv-x="600" d="M300 300 Q332 300 353.5 278 Q375 256 375 225 Q375 194 353 172 Q331 150 300 150 Q269 150 247 172 Q225 194 225 225 Q225 256 247 278 Q269 300 300 300 Z M500 375 Q521 375 535.5 360.5 Q550 346 550 325 L550 100 Q550 80 535.5 65 Q521 50 500 50 L100 50 Q80 50 65 65 Q50 80 50 100 L50 325 Q50 346 65 360.5 Q80 375 100 375 L160 375 Q174 375 180 390 L195 436 Q200 450 215 450 L385 450 Q400 450 405 436 L420 390 Q426 375 440 375 L500 375 Z M211.5 136.5 Q248 100 300 100 Q352 100 388.5 136.5 Q425 173 425 225 Q425 277 388.5 313.5 Q352 350 300 350 Q248 350 211.5 313.5 Q175 277 175 225 Q175 173 211.5 136.5 Z M470.5 295 Q476 290 483 290 Q490 290 495 295.5 Q500 301 500 308 Q500 315 495 320 Q490 325 483 325 Q465 325 465 308 Q465 300 470.5 295 Z " />
<glyph glyph-name="database" unicode="&#x1f4f8;" horiz-adv-x="450" d="M393 179 Q400 189 400 178 L400 128 Q400 91 348 60.5 Q296 30 225 30 Q155 30 102.5 60.5 Q50 91 50 128 L50 178 Q50 182 52 183 Q54 184 57 179 Q73 153 119.5 136 Q166 119 225 119 Q284 119 330.5 136 Q377 153 393 179 Z M394 306 Q398 314 400 306 L400 248 Q400 214 349 191 Q298 168 225 168 Q153 168 101.5 191 Q50 214 50 248 L50 306 Q50 316 57 306 Q72 283 119 268.5 Q166 254 225 254 Q284 254 331 268.5 Q378 283 394 306 Z M101.5 450.5 Q153 470 225 470 Q297 470 348.5 450.5 Q400 431 400 404 L400 372 Q400 343 348.5 322.5 Q297 302 225 302 Q153 302 101.5 322.5 Q50 343 50 372 L50 404 Q50 431 101.5 450.5 Z " />
<glyph glyph-name="drive" unicode="&#x1f4fd;" horiz-adv-x="551" d="M492 227 Q505 205 499 179 L482 87 Q481 77 472.5 69.5 Q464 62 453 62 L97 62 Q87 62 78 69.5 Q69 77 68 87 L51 179 Q47 205 58 227 L137 414 Q148 437 173 437 L377 437 Q402 437 414 414 L492 227 Z M458 161 Q459 172 453 180 Q447 188 436 188 L114 188 Q103 188 97 180 Q91 172 92 161 L99 124 Q100 113 108.5 105.5 Q117 98 128 98 L423 98 Q434 98 442.5 105.5 Q451 113 452 124 L458 161 Z " />
<glyph glyph-name="bucket" unicode="&#x1f4fe;" horiz-adv-x="558" d="M312 465 Q399 465 455 440.5 Q511 416 507 388 Q504 369 483 234.5 Q462 100 461 94 Q460 85 442.5 72 Q425 59 389 47 Q353 35 312 35 Q271 35 235.5 47 Q200 59 182.5 72 Q165 85 164 94 Q164 95 162 109 Q203 106 243.5 126.5 Q284 147 313 185 Q327 185 337 195 Q347 205 347 220 Q347 234 337 244.5 Q327 255 312 255 Q298 255 287.5 244.5 Q277 234 277 220 Q277 210 282 202 Q258 173 224.5 157.5 Q191 142 159 144 Q108 149 80.5 172.5 Q53 196 51 227 Q47 288 129 319 Q120 366 118 388 Q114 416 170 440.5 Q226 465 312 465 Z M86 230 Q88 214 104.5 200.5 Q121 187 150 181 L134 283 Q84 261 86 230 Z M234 345 Q271 336 312 336 Q353 336 390.5 345 Q428 354 447 364.5 Q466 375 466 382 Q466 389 447 399.5 Q428 410 391 419 Q354 428 312 428 Q271 428 234 419 Q197 410 178 399.5 Q159 389 159 382 Q159 375 178 364.5 Q197 354 234 345 Z " />
<glyph glyph-name="thermometer" unicode="&#x1f4ff;" horiz-adv-x="370" d="M250 253 Q282 235 301 204 Q320 173 320 135 Q320 79 280.5 39.5 Q241 0 185 0 Q129 0 89.5 39.5 Q50 79 50 135 Q50 173 69 204 Q88 235 120 253 L120 475 Q120 500 140 500 L225 500 Q235 500 242.5 492.5 Q250 485 250 475 L250 253 Z M125 75 Q150 50 185 50 Q220 50 245 75 Q270 100 270 135 Q270 163 254 185 Q238 207 212 215 L212 400 L162 400 L162 216 Q135 208 117.5 185.5 Q100 163 100 135 Q100 100 125 75 Z " />
<glyph glyph-name="shuffle" unicode="&#x1f500;" horiz-adv-x="600" d="M427 333 Q400 333 374.5 317 Q349 301 334.5 284 Q320 267 293 232 Q269 201 255.5 185 Q242 169 216.5 146.5 Q191 124 163 113.5 Q135 103 102 103 L50 103 L50 173 L102 173 Q129 173 155 189 Q181 205 195.5 222 Q210 239 237 274 Q268 315 287.5 337 Q307 359 345.5 381 Q384 403 427 403 L445 403 L445 463 L550 373 L445 283 L445 333 L427 333 Z M185 289 Q148 328 102 328 L50 328 L50 398 L102 398 Q172 398 229 344 Q222 336 210.5 321.5 Q199 307 197 305 Q193 299 185 289 Z M445 168 L445 218 L550 128 L445 38 L445 98 L427 98 Q357 98 297 156 Q320 185 333 202 Q333 203 336 206.5 Q339 210 340 212 Q382 168 427 168 L445 168 Z " />
<glyph glyph-name="loop" unicode="&#x1f501;" horiz-adv-x="550" d="M450 345 Q471 345 485.5 330.5 Q500 316 500 295 L500 150 Q500 130 485.5 115 Q471 100 450 100 L100 100 Q80 100 65 115 Q50 130 50 150 L50 295 Q50 316 65 330.5 Q80 345 100 345 L225 345 L225 400 L325 310 L225 220 L225 275 L120 275 L120 170 L430 170 L430 275 L355 275 L355 345 L450 345 Z " />
<glyph glyph-name="cycle" unicode="&#x1f504;" horiz-adv-x="512" d="M144 145 L202 203 L202 57 L64 65 L108 108 Q50 169 51 253 Q52 337 111 397 Q161 447 231 455 L233 404 Q183 396 147 360 Q103 316 102 253.5 Q101 191 144 145 Z M310 444 L448 436 L404 393 Q462 332 461 248 Q460 164 401 104 Q353 55 281 45 L280 97 Q329 105 365 141 Q409 185 410 247.5 Q411 310 368 356 L311 298 L310 444 Z " />
<glyph glyph-name="light-down" unicode="&#x1f505;" horiz-adv-x="450" d="M225 330 Q259 330 282 306.5 Q305 283 305 250 Q305 216 282 193 Q259 170 225 170 Q192 170 168.5 193 Q145 216 145 250 Q145 283 168.5 306.5 Q192 330 225 330 Z M225 198 Q247 198 261.5 213 Q276 228 276 250 Q276 271 261.5 286 Q247 301 225 301 Q204 301 189 286 Q174 271 174 250 Q174 228 189 213 Q204 198 225 198 Z M57.5 264 Q65 270 75 270 Q85 270 92.5 264 Q100 258 100 250 Q100 230 75 230 Q50 230 50 250 Q50 258 57.5 264 Z M316 369 Q334 386 348 372 Q362 358 344 340 Q337 333 327.5 332 Q318 331 313 337 Q307 343 308 352.5 Q309 362 316 369 Z M358 264 Q365 270 375 270 Q385 270 392.5 264 Q400 258 400 250 Q400 230 375 230 Q351 230 351 250 Q351 258 358 264 Z M211 117.5 Q217 125 225 125 Q233 125 239 117.5 Q245 110 245 100 Q245 90 239 82.5 Q233 75 225 75 Q217 75 211 82.5 Q205 90 205 100 Q205 110 211 117.5 Z M103 124 Q88 138 106 156 Q124 174 138 160 Q152 146 134 128 Q127 121 117.5 120 Q108 119 103 124 Z M105 339 Q87 357 101 371 Q115 385 133 367 Q140 360 141 350.5 Q142 341 137 336 Q122 322 105 339 Z M317 129 Q300 147 314 161 Q328 175 346 157 Q353 150 354 140.5 Q355 131 349 126 Q334 112 317 129 Z M239 382.5 Q233 375 225 375 Q217 375 211 382.5 Q205 390 205 400 Q205 410 211 417.5 Q217 425 225 425 Q233 425 239 417.5 Q245 410 245 400 Q245 390 239 382.5 Z " />
<glyph glyph-name="light-up" unicode="&#x1f506;" horiz-adv-x="600" d="M525 270 Q535 270 542.5 264 Q550 258 550 250 Q550 230 525 230 L501 230 Q476 230 476 250 Q476 258 483.5 264 Q491 270 501 270 L525 270 Z M203 347 Q243 387 300 387 Q357 387 397.5 347 Q438 307 438 250 Q438 192 397.5 152 Q357 112 300 112 Q243 112 203 152 Q163 192 163 250 Q163 307 203 347 Z M229.5 179 Q259 150 300 150 Q341 150 370.5 179 Q400 208 400 250 Q400 291 370.5 320.5 Q341 350 300 350 Q259 350 229.5 320.5 Q200 291 200 250 Q200 208 229.5 179 Z M125 250 Q125 230 100 230 L75 230 Q50 230 50 250 Q50 258 57.5 264 Q65 270 75 270 L100 270 Q110 270 117.5 264 Q125 258 125 250 Z M314 432.5 Q308 425 300 425 Q292 425 286 432.5 Q280 440 280 450 L280 475 Q280 485 286 492.5 Q292 500 300 500 Q308 500 314 492.5 Q320 485 320 475 L320 450 Q320 440 314 432.5 Z M286 67.5 Q292 75 300 75 Q308 75 314 67.5 Q320 60 320 50 L320 25 Q320 15 314 7.5 Q308 0 300 0 Q292 0 286 7.5 Q280 15 280 25 L280 50 Q280 60 286 67.5 Z M484 405 L467 388 Q450 371 435 384 Q421 398 439 416 Q441 419 456 434 Q474 451 488 437 Q502 423 484 405 Z M134 111 Q141 119 150.5 120 Q160 121 165 115 Q171 109 170 99.5 Q169 90 162 83 L144 65 Q137 58 127.5 57 Q118 56 113 62 Q98 76 116 94 Q119 96 134 111 Z M144 434 L162 416 Q180 398 165 384 Q160 379 150.5 380 Q141 381 134 388 Q119 403 116 405 Q109 412 108 421.5 Q107 431 113 437 Q118 443 127.5 442 Q137 441 144 434 Z M439 83 Q421 101 435 115 Q449 129 467 111 L484 94 Q502 76 488 62 Q474 48 456 65 Q441 80 439 83 Z " />
<glyph glyph-name="mute" unicode="&#x1f507;" horiz-adv-x="542" d="M484 464 Q492 456 492 446 Q492 436 484 428 L93 37 Q84 30 76 30 Q67 30 58 37 Q50 44 50 55 Q50 66 58 73 L449 464 Q466 480 484 464 Z M376 271 L401 296 Q438 250 451.5 210 Q465 170 448 152 Q436 140 410.5 123.5 Q385 107 345 88 Q305 69 264.5 65.5 Q224 62 182 77 L321 215 Q343 199 365 188 Q387 177 398.5 175.5 Q410 174 415 176 Q418 181 416 193 Q414 205 403 227 Q392 249 376 271 Z M238 302 L103 167 Q83 233 117 308.5 Q151 384 183 416 Q200 432 235.5 421.5 Q271 411 315 379 L289 354 Q260 373 236.5 380.5 Q213 388 208 383 Q206 379 207 369 Q208 359 216.5 340 Q225 321 238 302 Z " />
<glyph glyph-name="sound" unicode="&#x1f50a;" horiz-adv-x="556" d="M138 369 Q159 390 212.5 366.5 Q266 343 321 288 Q376 233 399.5 179.5 Q423 126 402 105 Q388 91 356 71.5 Q324 52 278 32.5 Q232 13 181 18 Q130 23 93 60 Q56 97 51 148 Q46 199 65.5 245 Q85 291 104.5 323 Q124 355 138 369 Z M370 129 Q374 134 368.5 153.5 Q363 173 344 204 Q325 235 296 263 Q268 292 237 311 Q206 330 186.5 335.5 Q167 341 162 337 Q158 332 163.5 312.5 Q169 293 188 262 Q207 231 235 202 Q264 174 295 155 Q326 136 345.5 130.5 Q365 125 370 129 Z M373 326 Q364 326 356 334 Q348 341 348 351.5 Q348 362 356 369 L403 417 Q421 433 439 417 Q455 399 439 381 L391 334 Q383 326 373 326 Z M283 388 Q274 393 271.5 403 Q269 413 274 422 L301 470 Q314 492 335 480 Q344 475 346.5 465 Q349 455 344 446 L317 398 Q310 385 296 385 Q289 385 283 388 Z M487 324.5 Q497 322 502 313 Q507 304 504 294 Q501 284 492 279 L444 252 Q436 248 432 248 Q418 248 410 261 Q405 270 408 280 Q411 290 420 295 L468 322 Q477 327 487 324.5 Z " />
<glyph glyph-name="battery" unicode="&#x1f50b;" horiz-adv-x="600" d="M435 250 Q435 201 453 171.5 Q471 142 492 142 L525 142 Q510 119 493 109.5 Q476 100 434 100 L184 100 Q119 100 84.5 147 Q50 194 50 250 Q50 305 84.5 352.5 Q119 400 184 400 L434 400 Q476 400 493 390.5 Q510 381 525 358 L492 358 Q471 358 453 328 Q435 298 435 250 Z M367 205 Q372 211 363 218 Q295 285 274 300 Q266 305 261 306.5 Q256 308 252 304 Q248 300 247 298 Q246 296 243 289 L232 261 L158 294 Q145 300 141 294 Q137 287 145 280 Q213 214 235 199 Q252 191 256 193.5 Q260 196 265 209 L277 238 L350 204 Q363 198 367 205 Z M522 301 Q533 301 541.5 287.5 Q550 274 550 252 Q550 230 541.5 216 Q533 202 522 202 L503 202 Q492 202 484 216 Q476 230 476 252 Q476 274 484 287.5 Q492 301 503 301 L522 301 Z " />
<glyph glyph-name="search" unicode="&#x1f50d;" horiz-adv-x="495" d="M436 114 Q451 97 439 83 L416 60 Q398 44 382 60 L287 155 Q250 134 209 134 Q145 134 97.5 181.5 Q50 229 50 293 Q50 357 95 402.5 Q140 448 204 448 Q268 448 316 400.5 Q364 353 364 289 Q364 245 341 208 L436 114 Z M128.5 368.5 Q97 337 97 293 Q97 249 131 215 Q165 181 209 181 Q253 181 284.5 212.5 Q316 244 316 289 Q316 333 282 366.5 Q248 400 204 400 Q160 400 128.5 368.5 Z " />
<glyph glyph-name="key" unicode="&#x1f511;" horiz-adv-x="490" d="M437 381 Q447 323 423 273.5 Q399 224 348 215 Q315 209 283 214 L224 117 L189 111 L137 28 Q130 14 114 12 L76 5 Q70 3 65 7 Q60 11 59 18 L51 67 Q47 82 57 95 L186 288 Q174 313 167 348 Q158 401 193.5 441.5 Q229 482 286 492 Q339 502 383.5 469.5 Q428 437 437 381 Z M374 343 Q389 365 384.5 391.5 Q380 418 359 433 Q338 449 313 444 Q288 439 273 417 Q269 411 267 405.5 Q265 400 266.5 395.5 Q268 391 269 387.5 Q270 384 275.5 379 Q281 374 284.5 371.5 Q288 369 295.5 363.5 Q303 358 307 355 Q310 353 318 347 Q326 341 329.5 339 Q333 337 339 333 Q345 329 348.5 329 Q352 329 357 329.5 Q362 330 366 333.5 Q370 337 374 343 Z " />
<glyph glyph-name="lock" unicode="&#x1f512;" horiz-adv-x="450" d="M370 313 Q380 313 390 303.5 Q400 294 400 283 L400 88 Q400 64 376 55 L346 46 Q325 38 298 38 L153 38 Q125 38 104 46 L74 55 Q50 64 50 88 L50 283 Q50 294 57.5 303.5 Q65 313 75 313 L125 313 L125 348 Q125 403 150.5 433 Q176 463 225 463 Q274 463 299.5 433 Q325 403 325 348 L325 313 L370 313 Z M175 358 L175 313 L275 313 L275 358 Q275 384 261.5 398.5 Q248 413 225 413 Q202 413 188.5 398.5 Q175 384 175 358 Z " />
<glyph glyph-name="lock-open" unicode="&#x1f513;" horiz-adv-x="450" d="M370 300 Q380 300 390 290 Q400 280 400 270 L400 75 Q400 65 393 55.5 Q386 46 376 43 L346 33 Q320 25 298 25 L153 25 Q130 25 104 33 L74 43 Q64 46 57 55.5 Q50 65 50 75 L50 270 Q50 281 57.5 290.5 Q65 300 75 300 L275 300 L275 370 Q275 425 225 425 Q175 425 175 370 L175 350 L125 350 L125 360 Q125 415 150.5 445 Q176 475 225 475 Q325 475 325 360 L325 300 L370 300 Z " />
<glyph glyph-name="bell" unicode="&#x1f514;" horiz-adv-x="500" d="M366 288 Q374 271 386 262 Q398 253 408.5 251 Q419 249 430.5 239.5 Q442 230 448 212 Q459 181 411 131.5 Q363 82 285 53 Q203 24 136.5 30.5 Q70 37 59 68 Q49 95 65 123.5 Q81 152 74 179 Q46 275 50.5 329 Q55 383 107 425 Q120 436 121.5 450.5 Q123 465 136 470 Q148 474 159 464 Q170 454 187 455 Q253 456 286 422 Q319 388 366 288 Z M185 67 Q229 70 273 86 Q317 102 352.5 128.5 Q388 155 402.5 174 Q417 193 415 199 Q411 210 390.5 215.5 Q370 221 328.5 216 Q287 211 235 192 Q184 173 148.5 148.5 Q113 124 101.5 106.5 Q90 89 93 80 Q95 74 118 69 Q141 64 185 67 Z M242 173 Q246 174 252.5 176.5 Q259 179 261 180 L262 179 Q269 159 253.5 137.5 Q238 116 209 106 Q161 88 133 113 Q172 147 242 173 Z " />
<glyph glyph-name="bookmark" unicode="&#x1f516;" horiz-adv-x="280" d="M205 475 Q216 475 223 467.5 Q230 460 230 450 L230 25 L140 115 L50 25 L50 450 Q50 475 70 475 L205 475 Z " />
<glyph glyph-name="link" unicode="&#x1f517;" horiz-adv-x="500" d="M197 133 Q204 140 214 140 Q224 140 232 133 Q248 116 232 98 L211 78 Q183 50 145 50 Q106 50 78 78 Q50 106 50 144 Q50 183 78 211 L152 285 Q187 319 224 323.5 Q261 328 288 302 Q296 294 296 284 Q296 274 288 266 Q270 250 253 266 Q228 290 187 249 L113 176 Q100 163 100 144 Q100 125 113 113 Q126 100 144.5 100 Q163 100 176 113 L197 133 Z M422 420 Q450 392 450 354 Q450 315 422 287 L343 208 Q306 172 268 172 Q237 172 212 197 Q205 204 205 214 Q205 224 212 232 Q219 239 229.5 239 Q240 239 247 232 Q272 208 308 244 L387 322 Q401 336 401 354 Q401 373 387 385 Q375 398 359 400.5 Q343 403 329 390 L304 365 Q296 358 286 358 Q276 358 269 365 Q252 382 269 400 L294 425 Q321 452 357.5 450.5 Q394 449 422 420 Z " />
</font>
</svg>
